Panic.Button.2011.BDRip.XVID.AC3.HQ.Hive-CM8



IMDB :
http://www.imdb.com/title/tt1727358/



Synopsis:
Four young people win a competition of a lifetime; Jo (Scarlett Alice Johnson – Adulthood), Max (Jack Gordon – Heartless) Gwen (Elen Rhys – Season Of The Witch) and Dave (Michael Jibson – The Bank Job) head off on an all expenses paid trip to New York, courtesy of social network All2gethr.com. As they board the private jet, they are asked to relinquish their mobile phones and take part in the in-flight entertainment – a new online gaming experience.
Fileserve :
http://www.fileserve.com/file/TeQRBS...-CM8.part1.rar
http://www.fileserve.com/file/ewUwT7...-CM8.part2.rar
http://www.fileserve.com/file/xxsyfY...-CM8.part3.rar

Filejungle :
http://www.filejungle.com/f/h3gKMF/P...-CM8.part1.rar
http://www.filejungle.com/f/Qmew6d/P...-CM8.part2.rar
http://www.filejungle.com/f/UtgD4t/P...-CM8.part3.rar

Filesonic :
http://www.filesonic.com/file/367575...-CM8.part1.rar
http://www.filesonic.com/file/367575...-CM8.part2.rar
http://www.filesonic.com/file/367575...-CM8.part3.rar

Filepost :
http://filepost.com/files/137151d2/P...CM8.part1.rar/
http://filepost.com/files/md5a6cbb/P...CM8.part2.rar/
http://filepost.com/files/32a939me/P...CM8.part3.rar/

PLEASE REPLY IF YOU LIKE MY POST!

SCREENSHOT :


NFO :
General
Complete name : Panic.Button.2011.BDRip.XVID.AC3.HQ.Hive-CM8.avi
Format : AVI
Format/Info : Audio Video Interleave
File size : 1.44 GiB
Duration : 1h 35mn
Overall bit rate : 2 156 Kbps
Writing application : Nandub v1.0rc2
Writing library : Nandub build 1853/release

Video
ID : 0
Format : MPEG-4 Visual
Format profile : Advanced [email protected]
Format settings, BVOP : 1
Format settings, QPel : Yes
Format settings, GMC : No warppoints
Format settings, Matrix : Default (H.263)
Muxing mode : Packed bitstream
Codec ID : XVID
Codec ID/Hint : XviD
Duration : 1h 35mn
Bit rate : 1 699 Kbps
Width : 720 pixels
Height : 304 pixels
Display aspect ratio : 2.40:1
Frame rate : 23.976 fps
Color space : YUV
Chroma subsampling : 4:2:0
Bit depth : 8 bits
Scan type : Progressive
Compression mode : Lossy
Bits/(Pixel*Frame) : 0.324
Stream size : 1.14 GiB (79%)
Writing library : XviD 1.2.1 (UTC 2008-12-04)

Audio
ID : 1
Format : AC-3
Format/Info : Audio Coding 3
Mode extension : CM (complete main)
Codec ID : 2000
Duration : 1h 35mn
Bit rate mode : Constant
Bit rate : 448 Kbps
Channel(s) : 6 channels
Channel positions : Front: L C R, Side: L R, LFE
Sampling rate : 48.0 KHz
Bit depth : 16 bits
Compression mode : Lossy
Stream size : 306 MiB (21%)
Alignment : Split accross interleaves
Interleave, duration : 42 ms (1.00 video frame)
Interleave, preload duration : 500 ms