Quest.For.Zhu.2011.DVDRip.XviD.Ac3-Blackjesus



IMDB :
http://www.imdb.com/title/tt2073154



Synopsis:
The heartwarming tale of four lively young teens (who just happen to be hamsters) on a quest to find the Palace of Zhu, where they believe all their dreams will come true. Join the feisty and lovable Pipsqueak as she gets swept away to the other side of the Zhuniverse. On her adventure, she befriends the Palace of Zhu, they realize it is just the beginning of their remarkable journey. A mean-spirited and controlling reptilian creature, Mezhula, tries to stand in the way of making all of their dreams come true but, by working together, our true Zhu heroes save the day! Pipsqueak realizes she already had everything she ever dreamed of and all she really wants is to find a way back home.
Wupload :
http://www.wupload.com/file/23205106...Blackjesus.rar

Fileserve :
http://www.fileserve.com/file/XfpHkx...Blackjesus.rar

Filejungle :
http://www.filejungle.com/f/sT5Ruv/Q...Blackjesus.rar

Filesonic :
http://www.filesonic.com/file/366157...Blackjesus.rar

PLEASE REPLY IF YOU LIKE MY POST!

SCREENSHOT :


NFO :
General
Complete name : Quest.For.Zhu.2011.DVDRip.XviD.Ac3-Blackjesus.avi
Format : AVI
Format/Info : Audio Video Interleave
File size : 702 MiB
Duration : 1h 9mn
Overall bit rate : 1 402 Kbps
Writing application : VirtualDubMod 1.5.10.2 (build 2540/release)
Writing library : VirtualDubMod build 2540/release

Video
ID : 0
Format : MPEG-4 Visual
Format profile : Advanced [email protected]
Format settings, BVOP : 2
Format settings, QPel : No
Format settings, GMC : No warppoints
Format settings, Matrix : Default (H.263)
Muxing mode : Packed bitstream
Codec ID : XVID
Codec ID/Hint : XviD
Duration : 1h 9mn
Bit rate : 944 Kbps
Width : 640 pixels
Height : 352 pixels
Display aspect ratio : 16:9
Frame rate : 25.000 fps
Color space : YUV
Chroma subsampling : 4:2:0
Bit depth : 8 bits
Scan type : Progressive
Compression mode : Lossy
Bits/(Pixel*Frame) : 0.168
Stream size : 472 MiB (67%)
Writing library : XviD 64

Audio
ID : 1
Format : AC-3
Format/Info : Audio Coding 3
Mode extension : CM (complete main)
Codec ID : 2000
Duration : 1h 9mn
Bit rate mode : Constant
Bit rate : 448 Kbps
Channel(s) : 6 channels
Channel positions : Front: L C R, Side: L R, LFE
Sampling rate : 48.0 KHz
Bit depth : 16 bits
Compression mode : Lossy
Stream size : 224 MiB (32%)
Alignment : Split accross interleaves
Interleave, duration : 40 ms (1.00 video frame)
Interleave, preload duration : 500 ms