Karate.Girl.2011.DVDRip.XviD-Filmikz



IMDB :
http://www.imdb.com/title/tt1726661/



Synopsis:
Rina Takeda and Haruna [sic] Tobimatsu co-star as sisters Ayaka and Natsuki Kurenai, the youngest descendants of a legendary Okinawan karate master named Shoujirou Kurenai. As children, they live a happy life with their father (Tatsuya Naka) who encourages them both to practice karate. However, one day a mysterious group breaks into their dojo – killing their father, kidnapping Natsuki, and stealing the black belt which has been passed down in their family for over 200 years. Several years later, Ayaka is living the humble life of an ordinary high school student in Yokohama. Natsuki, on the other hand, has been trained as a killing machine by the mysterious group that kidnapped her all those years ago. Soon, Natsuki and the group begin to take aim at Ayaka. Out of love for her sister and with the teachings of her father still in her heart, Ayaka decides to do whatever it takes to get Natsuki and their family’s black belt back from the clutches of the mysterious group.
Fileserve :
http://www.fileserve.com/file/yA9yU8...iD-Filmikz.rar

Filejungle :
http://www.filejungle.com/f/A7JFP5/K...iD-Filmikz.rar

Filesonic :
http://www.filesonic.com/file/361033...iD-Filmikz.rar

Filepost :
http://filepost.com/files/2df3ff21/K...iD-Filmikz.rar

PLEASE REPLY IF YOU LIKE MY POST!

SCREENSHOT :


NFO :
General
Complete name : Karate_Girl_2011_DVDRip_XviD-Filmikz.avi
Format : AVI
Format/Info : Audio Video Interleave
File size : 875 MiB
Duration : 1h 31mn
Overall bit rate : 1 337 Kbps

Video
ID : 0
Format : MPEG-4 Visual
Format settings, BVOP : 1
Format settings, QPel : No
Format settings, GMC : No warppoints
Format settings, Matrix : Default (H.263)
Muxing mode : Packed bitstream
Codec ID : DX50
Codec ID/Hint : DivX 5
Duration : 1h 31mn
Bit rate : 1 200 Kbps
Width : 720 pixels
Height : 480 pixels
Display aspect ratio : 3:2
Frame rate : 23.976 fps
Standard : NTSC
Color space : YUV
Chroma subsampling : 4:2:0
Bit depth : 8 bits
Scan type : Progressive
Compression mode : Lossy
Bits/(Pixel*Frame) : 0.145
Stream size : 785 MiB (90%)
Title : Video
Writing library : DivX 3013

Audio
ID : 1
Format : MPEG Audio
Format version : Version 1
Format profile : Layer 3
Codec ID : 55
Codec ID/Hint : MP3
Duration : 1h 31mn
Bit rate mode : Constant
Bit rate : 128 Kbps
Channel(s) : 2 channels
Sampling rate : 48.0 KHz
Compression mode : Lossy
Stream size : 83.8 MiB (10%)
Alignment : Split accross interleaves
Interleave, duration : 42 ms (1.00 video frame)
Interleave, preload duration : 500 ms
Title : Audio