Melancholia 2011 BRRip 720p x264 AAC-KiNGDOM



IMDB :
http://www.imdb.com/title/tt1527186/



Synopsis:
Two sisters find their already strained relationship challenged as a mysterious new planet threatens to collide into the Earth.
Fileserve :
http://www.fileserve.com/file/Xkvpdu...olia.part1.rar
http://www.fileserve.com/file/KmpYZ3...olia.part2.rar
http://www.fileserve.com/file/xnm7kr...olia.part3.rar

Filejungle :
http://www.filejungle.com/f/GxHsKf/M...olia.part1.rar
http://www.filejungle.com/f/4hFZEj/M...olia.part2.rar
http://www.filejungle.com/f/AjXU9N/M...olia.part3.rar

Filesonic :
http://www.filesonic.com/file/354789...olia.part1.rar
http://www.filesonic.com/file/354789...olia.part2.rar
http://www.filesonic.com/file/354789...olia.part3.rar

Filepost :
http://filepost.com/files/7314cfbf/M...olia.part1.rar
http://filepost.com/files/c1946m39/M...olia.part2.rar
http://filepost.com/files/c5c371b6/M...olia.part3.rar

PLEASE REPLY IF YOU LIKE MY POST!

SCREENSHOT :


NFO :
General
Complete name : Melancholia.mp4
Format : MPEG-4
Format profile : Base Media
Codec ID : isom
File size : 2.01 GiB
Duration : 2h 9mn
Overall bit rate : 2 215 Kbps
Encoded date : UTC 2011-11-13 22:35:46
Tagged date : UTC 2011-11-13 22:35:46

Video
ID : 1
Format : AVC
Format/Info : Advanced Video Codec
Format profile : [email protected]
Format settings, CABAC : Yes
Format settings, ReFrames : 3 frames
Format settings, GOP : M=1, N=24
Codec ID : avc1
Codec ID/Info : Advanced Video Coding
Duration : 2h 9mn
Bit rate mode : Variable
Bit rate : 1 947 Kbps
Maximum bit rate : 40.0 Mbps
Width : 1 280 pixels
Height : 544 pixels
Display aspect ratio : 2.35:1
Frame rate mode : Constant
Frame rate : 25.000 fps
Color space : YUV
Chroma subsampling : 4:2:0
Bit depth : 8 bits
Scan type : Progressive
Bits/(Pixel*Frame) : 0.112
Stream size : 1.77 GiB (88%)
Writing library : x264 core 119 r2106 07efeb4
Encoding settings : cabac=1 / ref=4 / deblock=1:0:0 / analyse=0x3:0x113 / me=umh / subme=9 / psy=1 / psy_rd=1.00:0.00 / mixed_ref=1 / me_range=16 / chroma_me=1 / trellis=2 / 8x8dct=1 / cqm=0 / deadzone=21,11 / fast_pskip=1 / chroma_qp_offset=-2 / threads=6 / sliced_threads=0 / slices=4 / nr=0 / decimate=1 / interlaced=0 / bluray_compat=0 / constrained_intra=0 / bframes=3 / b_pyramid=1 / b_adapt=2 / b_bias=0 / direct=1 / weightb=1 / open_gop=0 / weightp=0 / keyint=24 / keyint_min=2 / scenecut=40 / intra_refresh=0 / rc_lookahead=24 / rc=2pass / mbtree=1 / bitrate=1947 / ratetol=1.0 / qcomp=0.60 / qpmin=10 / qpmax=51 / qpstep=4 / cplxblur=20.0 / qblur=0.5 / vbv_maxrate=40000 / vbv_bufsize=30000 / nal_hrd=vbr / ip_ratio=1.40 / aq=1:1.00
Encoded date : UTC 2011-11-13 12:56:28
Tagged date : UTC 2011-11-13 22:41:34

Audio
ID : 2
Format : AAC
Format/Info : Advanced Audio Codec
Format profile : LC
Codec ID : 40
Duration : 2h 9mn
Bit rate mode : Variable
Bit rate : 264.6 Kbps
Maximum bit rate : 433 Kbps
Channel(s) : 6 channels
Channel positions : Front: L C R, Side: L R, LFE
Sampling rate : 48.0 KHz
Compression mode : Lossy
Stream size : 243 MiB (12%)
Encoded date : UTC 2011-11-13 22:40:50
Tagged date : UTC 2011-11-13 22:41:34