+ Viết bài mới
Hiện kết quả từ 1 tới 1 của 1
  1. #1
    Tham gia ngày
    Sep 2011
    Bài gửi
    2.467
    Thanks
    0
    Thanked 0 Times in 0 Posts
    Năng lực viết bài
    354

    Mặc định Flypaper 2011 DVDRip XviD-ViP3R

    Flypaper.2011.DVDRip.XviD-ViP3R



    IMDB :
    http://www.imdb.com/title/tt1541160/



    Synopsis:
    A man caught in the middle of two simultaneous robberies at the same bank desperately tries to protect the teller with whom he’s secretly in love.
    Fileserve :
    http://www.fileserve.com/file/X2bVb9...-ViP3R.avi.rar

    Filejungle :
    http://www.filejungle.com/f/JVB3kD/F...-ViP3R.avi.rar

    Filesonic :
    http://www.filesonic.com/file/354484...-ViP3R.avi.rar

    Filepost :
    http://filepost.com/files/624f1782/F...-ViP3R.avi.rar

    PLEASE REPLY IF YOU LIKE MY POST!

    SCREENSHOT :


    NFO :
    General
    Complete name : Flypaper.2011.DVDRip.XviD-ViP3R.avi
    Format : AVI
    Format/Info : Audio Video Interleave
    File size : 698 MiB
    Duration : 1h 27mn
    Overall bit rate mode : Variable
    Overall bit rate : 1 118 Kbps
    Writing application : VirtualDubMod 1.5.4.1 (build 2178/release)
    Writing library : VirtualDubMod build 2178/release

    Video
    ID : 0
    Format : MPEG-4 Visual
    Format profile : Advanced [email protected]
    Format settings, BVOP : No
    Format settings, QPel : No
    Format settings, GMC : No warppoints
    Format settings, Matrix : Custom
    Codec ID : XVID
    Codec ID/Hint : XviD
    Duration : 1h 27mn
    Bit rate : 993 Kbps
    Width : 640 pixels
    Height : 288 pixels
    Display aspect ratio : 2.222
    Frame rate : 23.976 fps
    Color space : YUV
    Chroma subsampling : 4:2:0
    Bit depth : 8 bits
    Scan type : Progressive
    Compression mode : Lossy
    Bits/(Pixel*Frame) : 0.225
    Stream size : 620 MiB (89%)
    Writing library : XviD 1.2.1 (UTC 2008-12-04)

    Audio
    ID : 1
    Format : MPEG Audio
    Format version : Version 1
    Format profile : Layer 3
    Mode : Joint stereo
    Mode extension : MS Stereo
    Codec ID : 55
    Codec ID/Hint : MP3
    Duration : 1h 27mn
    Bit rate mode : Variable
    Bit rate : 112 Kbps
    Nominal bit rate : 128 Kbps
    Channel(s) : 2 channels
    Sampling rate : 48.0 KHz
    Compression mode : Lossy
    Stream size : 70.1 MiB (10%)
    Alignment : Aligned on interleaves
    Interleave, duration : 24 ms (0.58 video frame)
    Interleave, preload duration : 164 ms
    Writing library : LAME3.98r
    Encoding settings : -m j -V 4 -q 2 -lowpass 17 --abr 128
    Language : English
    Lần sửa cuối bởi tuanq82; 14-11-2011 lúc 06:04 PM

+ Viết bài mới

Thread Information

Users Browsing this Thread

There are currently 1 users browsing this thread. (0 members and 1 guests)

Quyền viết bài

  • Bạn không thể gửi chủ đề mới
  • Bạn không thể gửi trả lời
  • Bạn không thể gửi file đính kèm
  • Bạn không thể sửa bài viết của mình
  •