11.11.11.2011.DVDRip.XviD.AC3-SceneLovers



IMDB :
http://www.imdb.com/title/tt1712159/



Synopsis:
After the death of his wife and child, an author travels to Barcelona to see his estranged brother and dying father, where he learns that his life is plagued by events that occur on 11/11/11.
Filepost :
http://filepost.com/files/9bm24m43/t...ers.part1.rar/
http://filepost.com/files/b255c353/t...ers.part2.rar/
http://filepost.com/files/f4764a4d/t...ers.part3.rar/
http://filepost.com/files/f4254862/t...ers.part4.rar/

Fileserve :
http://www.fileserve.com/file/sJGnmu...vers.part1.rar
http://www.fileserve.com/file/fmyk5U...vers.part2.rar
http://www.fileserve.com/file/HUSs6Y...vers.part3.rar
http://www.fileserve.com/file/u26UAu...vers.part4.rar

Filejungle :
http://www.filejungle.com/f/yE6fja/t...vers.part1.rar
http://www.filejungle.com/f/Qw8qeD/t...vers.part2.rar
http://www.filejungle.com/f/hgwXEU/t...vers.part3.rar
http://www.filejungle.com/f/fm3rtk/t...vers.part4.rar

Filesonic :
http://www.filesonic.com/file/349836...vers.part1.rar
http://www.filesonic.com/file/349836...vers.part2.rar
http://www.filesonic.com/file/349838...vers.part3.rar
http://www.filesonic.com/file/349838...vers.part4.rar

PLEASE REPLY IF YOU LIKE MY POST!

SCREENSHOT :


NFO :
General
Complete name : 11.11.11.2011.DVDRip.XviD.AC3-SceneLovers.avi
Format : AVI
Format/Info : Audio Video Interleave
Format profile : OpenDML
File size : 2.00 GiB
Duration : 1h 32mn
Overall bit rate : 3 086 Kbps
Writing application : FairUse Wizard - http://fairusewizard.com
Writing library : The best and REALLY easy backup tool

Video
ID : 0
Format : MPEG-4 Visual
Format profile : Advanced [email protected]
Format settings, BVOP : 2
Format settings, QPel : No
Format settings, GMC : No warppoints
Format settings, Matrix : Default (H.263)
Muxing mode : Packed bitstream
Codec ID : XVID
Codec ID/Hint : XviD
Duration : 1h 32mn
Bit rate : 2 625 Kbps
Width : 704 pixels
Height : 288 pixels
Display aspect ratio : 2.40:1
Frame rate : 25.000 fps
Color space : YUV
Chroma subsampling : 4:2:0
Bit depth : 8 bits
Scan type : Progressive
Compression mode : Lossy
Bits/(Pixel*Frame) : 0.518
Stream size : 1.70 GiB (85%)
Writing library : XviD 1.2.1 (UTC 2008-12-04)

Audio
ID : 1
Format : AC-3
Format/Info : Audio Coding 3
Mode extension : CM (complete main)
Codec ID : 2000
Duration : 1h 32mn
Bit rate mode : Constant
Bit rate : 448 Kbps
Channel(s) : 6 channels
Channel positions : Front: L C R, Side: L R, LFE
Sampling rate : 48.0 KHz
Bit depth : 16 bits
Compression mode : Lossy
Stream size : 298 MiB (15%)
Alignment : Split accross interleaves
Interleave, duration : 40 ms (1.00 video frame)
Interleave, preload duration : 500 ms