Geek.Charming.2011.HDTV.XviD-IDM



IMDB :
http://www.imdb.com/title/tt1622547/



Synopsis:
Dylan Schoenfield is the pink princess of the upscale Los Angeles Woodlands Academy. She has the coolest boyfriend.
Wupload :
http://www.wupload.com/file/22916368...V.XviD-IDM.rar

Fileserve :
http://www.fileserve.com/file/3sZj9q...V.XviD-IDM.rar

Filejungle :
http://www.filejungle.com/f/ZEhexJ/G...V.XviD-IDM.rar

Filesonic :
http://www.filesonic.com/file/349453...V.XviD-IDM.rar

PLEASE REPLY IF YOU LIKE MY POST!

SCREENSHOT :


NFO :
General
Complete name : Geek.Charming.2011.HDTV.XviD-IDM.avi
Format : AVI
Format/Info : Audio Video Interleave
File size : 700 MiB
Duration : 1h 37mn
Overall bit rate : 1 007 Kbps

Video
ID : 0
Format : MPEG-4 Visual
Format profile : Advanced [email protected]
Format settings, BVOP : 2
Format settings, QPel : No
Format settings, GMC : No warppoints
Format settings, Matrix : Default (H.263)
Codec ID : XVID
Codec ID/Hint : XviD
Duration : 1h 37mn
Bit rate : 914 Kbps
Width : 624 pixels
Height : 352 pixels
Display aspect ratio : 16:9
Frame rate : 23.976 fps
Color space : YUV
Chroma subsampling : 4:2:0
Bit depth : 8 bits
Scan type : Progressive
Compression mode : Lossy
Bits/(Pixel*Frame) : 0.174
Stream size : 636 MiB (91%)
Writing library : XviD 1.2.1 (UTC 2008-12-04)

Audio
ID : 1
Format : MPEG Audio
Format version : Version 1
Format profile : Layer 3
Codec ID : 55
Codec ID/Hint : MP3
Duration : 1h 37mn
Bit rate mode : Constant
Bit rate : 80.0 Kbps
Channel(s) : 2 channels
Sampling rate : 48.0 KHz
Compression mode : Lossy
Stream size : 55.6 MiB (8%)
Alignment : Split accross interleaves
Interleave, duration : 24 ms (0.58 video frame)