The.Devils.Double.2011.DVDRip.XviD.AC3.MRX.(Kingdom-Release)



IMDB :
http://www.imdb.com/title/tt1270262/



Synopsis:
A chilling vision of the House of Saddam Hussein comes to life through the eyes of the man who was forced to become the double of Hussein’s sadistic son.
Wupload :
http://www.wupload.com/file/22816655....MRX.part1.rar
http://www.wupload.com/file/22625383....MRX.part2.rar
http://www.wupload.com/file/22625383....MRX.part3.rar

Fileserve :
http://www.fileserve.com/file/gPmpGY....MRX.part1.rar
http://www.fileserve.com/file/6U63tj....MRX.part2.rar
http://www.fileserve.com/file/ZWWAYY....MRX.part3.rar

Filejungle :
http://www.filejungle.com/f/9bP9xG/T....MRX.part1.rar
http://www.filejungle.com/f/F9tckX/T....MRX.part2.rar
http://www.filejungle.com/f/HSW8G4/T....MRX.part3.rar

Filesonic :
http://www.filesonic.com/file/348887....MRX.part1.rar
http://www.filesonic.com/file/348887....MRX.part2.rar
http://www.filesonic.com/file/348878....MRX.part3.rar

PLEASE REPLY IF YOU LIKE MY POST!

SCREENSHOT :


NFO :
General
Complete name : The.Devils.Double.2011.DVDRip.XviD.AC3.MRX.avi
Format : AVI
Format/Info : Audio Video Interleave
File size : 1.42 GiB
Duration : 1h 48mn
Overall bit rate : 1 861 Kbps
Writing application : VirtualDubMod 1.5.10.2 (build 2540/release)
Writing library : VirtualDubMod build 2540/release

Video
ID : 0
Format : MPEG-4 Visual
Format profile : Advanced [email protected]
Format settings, BVOP : 2
Format settings, QPel : No
Format settings, GMC : No warppoints
Format settings, Matrix : Default (H.263)
Muxing mode : Packed bitstream
Codec ID : XVID
Codec ID/Hint : XviD
Duration : 1h 48mn
Bit rate : 1 404 Kbps
Width : 720 pixels
Height : 304 pixels
Display aspect ratio : 2.35:1
Frame rate : 23.976 fps
Color space : YUV
Chroma subsampling : 4:2:0
Bit depth : 8 bits
Scan type : Progressive
Compression mode : Lossy
Bits/(Pixel*Frame) : 0.267
Stream size : 1.07 GiB (75%)
Writing library : XviD 63

Audio
ID : 1
Format : AC-3
Format/Info : Audio Coding 3
Mode extension : CM (complete main)
Codec ID : 2000
Duration : 1h 48mn
Bit rate mode : Constant
Bit rate : 448 Kbps
Channel(s) : 6 channels
Channel positions : Front: L C R, Side: L R, LFE
Sampling rate : 48.0 KHz
Bit depth : 16 bits
Compression mode : Lossy
Stream size : 349 MiB (24%)
Alignment : Split accross interleaves
Interleave, duration : 42 ms (1.00 video frame)
Interleave, preload duration : 500 ms