30.Minutes.or.Less.2011.DVDRip.XviD.AC3.MRX.(Kingdom-Release)



IMDB :
http://www.imdb.com/title/tt1622547/



Synopsis:
Two fledgling criminals kidnap a pizza delivery guy, strap a bomb to his chest, and inform him that he has mere hours to rob a bank or else.
Wupload :
http://www.wupload.com/file/22814764...iD.AC3.MRX.rar

Fileserve :
http://www.fileserve.com/file/z5Jvyq...iD.AC3.MRX.rar

Filejungle :
http://www.filejungle.com/f/facZvq/3...iD.AC3.MRX.rar

Filesonic :
http://www.filesonic.com/file/348890...iD.AC3.MRX.rar

PLEASE REPLY IF YOU LIKE MY POST!

SCREENSHOT :


NFO :
General
Complete name : 30.Minutes.or.Less.2011.DVDRip.XviD.AC3.MRX.avi
Format : AVI
Format/Info : Audio Video Interleave
File size : 976 MiB
Duration : 1h 23mn
Overall bit rate : 1 642 Kbps
Writing application : VirtualDubMod 1.5.10.2 (build 2540/release)
Writing library : VirtualDubMod build 2540/release

Video
ID : 0
Format : MPEG-4 Visual
Format profile : Advanced [email protected]
Format settings, BVOP : 2
Format settings, QPel : No
Format settings, GMC : No warppoints
Format settings, Matrix : Default (H.263)
Muxing mode : Packed bitstream
Codec ID : XVID
Codec ID/Hint : XviD
Duration : 1h 23mn
Bit rate : 1 380 Kbps
Width : 720 pixels
Height : 304 pixels
Display aspect ratio : 2.35:1
Frame rate : 23.976 fps
Color space : YUV
Chroma subsampling : 4:2:0
Bit depth : 8 bits
Scan type : Progressive
Compression mode : Lossy
Bits/(Pixel*Frame) : 0.263
Stream size : 820 MiB (84%)
Writing library : XviD 63

Audio
ID : 1
Format : AC-3
Format/Info : Audio Coding 3
Mode extension : CM (complete main)
Codec ID : 2000
Duration : 1h 23mn
Bit rate mode : Constant
Bit rate : 256 Kbps
Channel(s) : 6 channels
Channel positions : Front: L C R, Side: L R, LFE
Sampling rate : 48.0 KHz
Bit depth : 16 bits
Compression mode : Lossy
Stream size : 152 MiB (16%)
Alignment : Split accross interleaves
Interleave, duration : 120 ms (2.88 video frames)
Interleave, preload duration : 600 ms