Our.Idiot.Brother.2011.BRRip.720p.x264.AAC-KiNGDOM



IMDB :
http://www.imdb.com/title/tt1637706/



Synopsis:
Ned lived a happy life growing organic vegetables on a farm with his hippie girlfriend and his dog named Willie Nelson, but an unadvised incident with marijuana at a farmer’s market lands him in jail. When he gets out of jail, he is off to live with his sisters. While Ned is still happy, his sisters are much less so after he manages to screw up one marriage, one job opportunity, one budding relationship and one domestic partnership. He sees those problems as breakdowns in communication, but his sisters see him as an idiot.
Wupload :
http://www.wupload.com/file/22814692...GDOM.part1.rar
http://www.wupload.com/file/22814588...GDOM.part2.rar
http://www.wupload.com/file/22813596...GDOM.part3.rar

Fileserve :
http://www.fileserve.com/file/rpfFkb...GDOM.part1.rar
http://www.fileserve.com/file/fMwyt2...GDOM.part2.rar
http://www.fileserve.com/file/KprvYK...GDOM.part3.rar

Filejungle :
http://www.filejungle.com/f/5yZ4MK/O...GDOM.part1.rar
http://www.filejungle.com/f/quAa7W/O...GDOM.part2.rar
http://www.filejungle.com/f/T4E3z6/O...GDOM.part3.rar

Filesonic :
http://www.filesonic.com/file/348887...GDOM.part1.rar
http://www.filesonic.com/file/348887...GDOM.part2.rar
http://www.filesonic.com/file/348887...GDOM.part3.rar

PLEASE REPLY IF YOU LIKE MY POST!

SCREENSHOT :


NFO :
General
Complete name : Our.Idiot.Brother.2011.BRRip.720p.x264.AAC-KiNGDOM.mp4
Format : MPEG-4
Format profile : Base Media
Codec ID : isom
File size : 1.60 GiB
Duration : 1h 29mn
Overall bit rate mode : Variable
Overall bit rate : 2 549 Kbps
Encoded date : UTC 2011-11-12 21:19:14
Tagged date : UTC 2011-11-12 21:19:14

Video
ID : 1
Format : AVC
Format/Info : Advanced Video Codec
Format profile : [email protected]
Format settings, CABAC : Yes
Format settings, ReFrames : 3 frames
Codec ID : avc1
Codec ID/Info : Advanced Video Coding
Duration : 1h 29mn
Bit rate mode : Variable
Bit rate : 2 251 Kbps
Maximum bit rate : 40.0 Mbps
Width : 1 280 pixels
Height : 720 pixels
Display aspect ratio : 16:9
Frame rate mode : Constant
Frame rate : 23.976 fps
Color space : YUV
Chroma subsampling : 4:2:0
Bit depth : 8 bits
Scan type : Progressive
Bits/(Pixel*Frame) : 0.102
Stream size : 1.41 GiB (88%)
Writing library : x264 core 119 r2106 07efeb4
Encoding settings : cabac=1 / ref=4 / deblock=1:0:0 / analyse=0x3:0x113 / me=umh / subme=9 / psy=1 / psy_rd=1.00:0.00 / mixed_ref=1 / me_range=16 / chroma_me=1 / trellis=2 / 8x8dct=1 / cqm=0 / deadzone=21,11 / fast_pskip=1 / chroma_qp_offset=-2 / threads=6 / sliced_threads=0 / slices=4 / nr=0 / decimate=1 / interlaced=0 / bluray_compat=0 / constrained_intra=0 / bframes=3 / b_pyramid=1 / b_adapt=2 / b_bias=0 / direct=1 / weightb=1 / open_gop=0 / weightp=0 / keyint=24 / keyint_min=2 / scenecut=40 / intra_refresh=0 / rc_lookahead=24 / rc=2pass / mbtree=1 / bitrate=2251 / ratetol=1.0 / qcomp=0.60 / qpmin=10 / qpmax=51 / qpstep=4 / cplxblur=20.0 / qblur=0.5 / vbv_maxrate=40000 / vbv_bufsize=30000 / nal_hrd=vbr / ip_ratio=1.40 / aq=1:1.00
Encoded date : UTC 2011-11-12 09:11:05
Tagged date : UTC 2011-11-12 21:21:12

Audio
ID : 2
Format : AAC
Format/Info : Advanced Audio Codec
Format profile : LC
Codec ID : 40
Duration : 1h 29mn
Bit rate mode : Variable
Bit rate : 294 Kbps
Maximum bit rate : 432 Kbps
Channel(s) : 6 channels
Channel positions : Front: L C R, Side: L R, LFE
Sampling rate : 48.0 KHz
Compression mode : Lossy
Stream size : 189 MiB (12%)
Encoded date : UTC 2011-11-12 21:20:36
Tagged date : UTC 2011-11-12 21:21:12