Restitution.2011.DVDRip.XviD.AC3-SiC



IMDB :
http://www.imdb.com/title/tt1452599/



Synopsis:
When the evil wizard Gargamel chases the tiny blue Smurfs out of their village, they tumble from their magical world and into ours.
Wupload :
http://www.wupload.com/file/22622157....SiC.part1.rar
http://www.wupload.com/file/22622159....SiC.part2.rar

Fileserve :
http://www.fileserve.com/file/jBv3hC....SiC.part1.rar
http://www.fileserve.com/file/SWq3qW....SiC.part2.rar

Filejungle :
http://www.filejungle.com/f/wKTc49/R....SiC.part1.rar
http://www.filejungle.com/f/UDBbWj/R....SiC.part2.rar

Filesonic :
http://www.filesonic.com/file/348694....SiC.part1.rar
http://www.filesonic.com/file/348694....SiC.part2.rar

PLEASE REPLY IF YOU LIKE MY POST!

SCREENSHOT :


NFO :
General
Complete name : Restitution.2011.DVDRip.XviD.AC3-SiC.avi
Format : AVI
Format/Info : Audio Video Interleave
File size : 1.37 GiB
Duration : 1h 40mn
Overall bit rate : 1 944 Kbps
VideoID : 0
Format : MPEG-4 Visual
Format profile : Advanced [email protected]
Format settings, BVOP : Yes
Format settings, QPel : No
Format settings, GMC : No warppoints
Format settings, Matrix : Default (MPEG)
Muxing mode : Packed bitstream
Codec ID : XVID
Codec ID/Hint : XviD
Duration : 1h 40mn
Bit rate : 1 552 Kbps
Width : 720 pixels
Height : 384 pixels
Display aspect ratio : 1.875
Frame rate : 23.976 fps
Color space : YUV
Chroma subsampling : 4:2:0
Bit depth : 8 bits
Scan type : Progressive
Bits/(Pixel*Frame) : 0.234
Stream size : 1.09 GiB (80%)
Writing library : XviD 64
Audio
ID : 1
Format : AC-3
Format/Info : Audio Coding 3
Mode extension : CM (complete main)
Codec ID : 2000
Duration : 1h 40mn
Bit rate mode : Constant
Bit rate : 384 Kbps
Channel(s) : 6 channels
Channel positions : Front: L C R, Side: L R, LFE
Sampling rate : 48.0 KHz
Bit depth : 16 bits
Stream size : 277 MiB (20%)
Alignment : Aligned on interleaves
interleave, duration : 64 ms (1.53 video frames)
Interleave, preload duration : 192
Title : Restitution T80 3_2ch 384Kbps DELAY 0ms