Our.Idiot.Brother.m720p.Bluray.x264.Jewelraz



IMDB :
http://www.imdb.com/title/tt1637706/



Synopsis:
Ned lived a happy life growing organic vegetables on a farm with his hippie girlfriend and his dog named Willie Nelson, but an unadvised incident with marijuana at a farmer’s market lands him in jail. When he gets out of jail, he is off to live with his sisters. While Ned is still happy, his sisters are much less so after he manages to screw up one marriage, one job opportunity, one budding relationship and one domestic partnership. He sees those problems as breakdowns in communication, but his sisters see him as an idiot.
Wupload :
http://www.wupload.com/file/22620693...lraz.part1.rar
http://www.wupload.com/file/22620698...lraz.part2.rar
http://www.wupload.com/file/22620694...lraz.part3.rar
http://www.wupload.com/file/22620693...lraz.part4.rar
http://www.wupload.com/file/22620694...lraz.part5.rar

Fileserve :
http://www.fileserve.com/file/x6mDMK...lraz.part1.rar
http://www.fileserve.com/file/Gnqrb4...lraz.part2.rar
http://www.fileserve.com/file/BqF8MV...lraz.part3.rar
http://www.fileserve.com/file/cFaRM2...lraz.part4.rar
http://www.fileserve.com/file/Vk6t5D...lraz.part5.rar

Filejungle :
http://www.filejungle.com/f/Y3zzwq/O...lraz.part1.rar
http://www.filejungle.com/f/UJVu8V/O...lraz.part2.rar
http://www.filejungle.com/f/dmwnWX/O...lraz.part3.rar
http://www.filejungle.com/f/pBzHz2/O...lraz.part4.rar
http://www.filejungle.com/f/wvMvQN/O...lraz.part5.rar

Filesonic :
http://www.filesonic.com/file/348553...lraz.part1.rar
http://www.filesonic.com/file/348553...lraz.part2.rar
http://www.filesonic.com/file/348553...lraz.part3.rar
http://www.filesonic.com/file/348553...lraz.part4.rar
http://www.filesonic.com/file/348553...lraz.part5.rar

PLEASE REPLY IF YOU LIKE MY POST!

SCREENSHOT :


NFO :
General
Unique ID : 235132179594162974099447003115418170113 (0xB0E4CF80A8EC3E3C91F56C9AC66A3301)
Complete name : Our.Idiot.Brother.m720p.Bluray.x264.Jewelraz.mkv
Format : Matroska
File size : 2.23 GiB
Duration : 1h 29mn
Overall bit rate : 3 552 Kbps
Encoded date : UTC 2011-11-10 10:35:24
Writing application : mkvmerge v5.0.0 ('Die Wahre Liebe') built on Sep 25 2011 20:33:49
Writing library : libebml v1.2.2 + libmatroska v1.3.0

Video
ID : 1
Format : AVC
Format/Info : Advanced Video Codec
Format profile : [email protected]
Format settings, CABAC : Yes
Format settings, ReFrames : 9 frames
Format settings, GOP : M=7, N=24
Muxing mode : Header stripping
Codec ID : V_MPEG4/ISO/AVC
Duration : 1h 29mn
Bit rate : 3 104 Kbps
Width : 1 280 pixels
Height : 720 pixels
Display aspect ratio : 16:9
Frame rate : 23.976 fps
Color space : YUV
Chroma subsampling : 4:2:0
Bit depth : 8 bits
Scan type : Progressive
Bits/(Pixel*Frame) : 0.140
Stream size : 1.90 GiB (85%)
Writing library : x264 core 116 r2074 2641b9e
Encoding settings : cabac=1 / ref=9 / deblock=1:-5:-5 / analyse=0x3:0x133 / me=umh / subme=9 / psy=1 / psy_rd=1.00:0.15 / mixed_ref=1 / me_range=32 / chroma_me=1 / trellis=1 / 8x8dct=1 / cqm=0 / deadzone=21,11 / fast_pskip=1 / chroma_qp_offset=-7 / threads=12 / sliced_threads=0 / slices=4 / nr=0 / decimate=1 / interlaced=0 / bluray_compat=0 / constrained_intra=0 / bframes=6 / b_pyramid=2 / b_adapt=1 / b_bias=0 / direct=1 / weightb=1 / open_gop=0 / weightp=2 / keyint=24 / keyint_min=2 / scenecut=40 / intra_refresh=0 / rc_lookahead=24 / rc=2pass / mbtree=1 / bitrate=3104 / ratetol=1.0 / qcomp=0.60 / qpmin=0 / qpmax=69 / qpstep=4 / cplxblur=20.0 / qblur=0.5 / ip_ratio=1.40 / aq=1:1.00

Audio
ID : 2
Format : AC-3
Format/Info : Audio Coding 3
Mode extension : CM (complete main)
Muxing mode : Header stripping
Codec ID : A_AC3
Duration : 1h 29mn
Bit rate mode : Constant
Bit rate : 448 Kbps
Channel(s) : 6 channels
Channel positions : Front: L C R, Side: L R, LFE
Sampling rate : 48.0 KHz
Bit depth : 16 bits
Compression mode : Lossy
Stream size : 288 MiB (13%)

Text
ID : 3
Format : UTF-8
Codec ID : S_TEXT/UTF8
Codec ID/Info : UTF-8 Plain Text