Clarkson.Powered.up.DVDRip.XviD.AC3-EMBER



IMDB :
http://www.ebay.co.uk/ctg/Clarkson-P...DVD-/108946887



Synopsis:
Jeremy Clarkson heads to the south of France where he puts cars to the test on the Circuit Paul Ricard and on the open road. Among the cars featured are the Ferrari FF and the 458, McLaren\’s MP4-12C, the latest Nissan GTR, the Porche GT2 RS, the Lamborghini Performante and the BMW 1M. The Stig and racing driver Karun Chandhok are on hand to help put these vehicles to the test, but which one will Jeremy choose as his favourite car of the year?
Fileserve :
http://www.fileserve.com/file/bdEpHrS/EMBER-CPU.rar
http://www.fileserve.com/file/jZptGja/Extras-EMBER.rar

Filejungle :
http://www.filejungle.com/f/UWSmbE/EMBER-CPU.rar
http://www.filejungle.com/f/5QChrJ/Extras-EMBER.rar

Filesonic :
http://www.filesonic.com/file/3455074075/EMBER-CPU.rar
http://www.filesonic.com/file/345507...tras-EMBER.rar

Uploaded :
http://ul.to/613hbogw
http://ul.to/bqh6wbbq

PLEASE REPLY IF YOU LIKE MY POST!

SCREENSHOT :



NFO :
General
Complete name : EMBER-CPU.avi
Format : AVI
Format/Info : Audio Video Interleave
File size : 699 MiB
Duration : 1h 6mn
Overall bit rate : 1 469 Kbps
Writing application : VirtualDubMod 1.5.10.2 (build 2540/release)
Writing library : VirtualDubMod build 2540/release

Video
ID : 0
Format : MPEG-4 Visual
Format profile : Advanced [email protected]
Format settings, BVOP : 2
Format settings, QPel : No
Format settings, GMC : No warppoints
Format settings, Matrix : Default (H.263)
Muxing mode : Packed bitstream
Codec ID : XVID
Codec ID/Hint : XviD
Duration : 1h 6mn
Bit rate : 1 267 Kbps
Width : 720 pixels
Height : 400 pixels
Display aspect ratio : 16:9
Frame rate : 25.000 fps
Color space : YUV
Chroma subsampling : 4:2:0
Bit depth : 8 bits
Scan type : Progressive
Compression mode : Lossy
Bits/(Pixel*Frame) : 0.176
Stream size : 603 MiB (86%)
Writing library : XviD 64

Audio
ID : 1
Format : AC-3
Format/Info : Audio Coding 3
Mode extension : CM (complete main)
Codec ID : 2000
Duration : 1h 6mn
Bit rate mode : Constant
Bit rate : 192 Kbps
Channel(s) : 2 channels
Channel positions : Front: L R
Sampling rate : 48.0 KHz
Bit depth : 16 bits
Compression mode : Lossy
Stream size : 91.4 MiB (13%)
Alignment : Split accross interleaves
Interleave, duration : 40 ms (1.00 video frame)
Interleave, preload duration : 500 ms