An.Invisible.Sign.2010.BDRip.XVID.AC3.HQ.Hive-CM8



IMDB :
http://www.imdb.com/title/tt1212454/



Synopsis:
Mona Gray is a 20-year-old loner who, as a child, turned to math for salvation after her father became ill. As an adult, Mona now teaches the subject and must help her students through their own crises.
Wupload :
http://www.wupload.com/file/22117201...-CM8.part1.rar
http://www.wupload.com/file/22117273...-CM8.part2.rar
http://www.wupload.com/file/22117169...-CM8.part3.rar

Fileserve :
http://www.fileserve.com/file/NqN77V...-CM8.part1.rar
http://www.fileserve.com/file/dBpc9G...-CM8.part2.rar
http://www.fileserve.com/file/eYx8Xp...-CM8.part3.rar

Filejungle :
http://www.filejungle.com/f/m8E3T4/A...-CM8.part1.rar
http://www.filejungle.com/f/fFkMdm/A...-CM8.part2.rar
http://www.filejungle.com/f/KjC2at/A...-CM8.part3.rar

Filesonic :
http://www.filesonic.com/file/344849...-CM8.part1.rar
http://www.filesonic.com/file/344849...-CM8.part2.rar
http://www.filesonic.com/file/344855...-CM8.part3.rar

PLEASE REPLY IF YOU LIKE MY POST!

SCREENSHOT :


NFO :
General
Complete name : An.Invisible.Sign.2010.BDRip.XVID.AC3.HQ.Hive-CM8.avi
Format : AVI
Format/Info : Audio Video Interleave
File size : 1.40 GiB
Duration : 1h 36mn
Overall bit rate : 2 093 Kbps
Writing application : Nandub v1.0rc2
Writing library : Nandub build 1853/release

Video
ID : 0
Format : MPEG-4 Visual
Format profile : Advanced [email protected]
Format settings, BVOP : 1
Format settings, QPel : Yes
Format settings, GMC : No warppoints
Format settings, Matrix : Default (H.263)
Muxing mode : Packed bitstream
Codec ID : XVID
Codec ID/Hint : XviD
Duration : 1h 36mn
Bit rate : 1 700 Kbps
Width : 720 pixels
Height : 304 pixels
Display aspect ratio : 2.40:1
Frame rate : 23.976 fps
Color space : YUV
Chroma subsampling : 4:2:0
Bit depth : 8 bits
Scan type : Progressive
Compression mode : Lossy
Bits/(Pixel*Frame) : 0.324
Stream size : 1.14 GiB (81%)
Writing library : XviD 1.2.1 (UTC 2008-12-04)

Audio
ID : 1
Format : AC-3
Format/Info : Audio Coding 3
Mode extension : CM (complete main)
Codec ID : 2000
Duration : 1h 36mn
Bit rate mode : Constant
Bit rate : 384 Kbps
Channel(s) : 6 channels
Channel positions : Front: L C R, Side: L R, LFE
Sampling rate : 48.0 KHz
Bit depth : 16 bits
Compression mode : Lossy
Stream size : 264 MiB (18%)
Alignment : Split accross interleaves
Interleave, duration : 42 ms (1.00 video frame)
Interleave, preload duration : 500 ms