Panic.Button.2011.BRRIP.Ac3.Xvid-ANALOG



IMDB :
http://www.imdb.com/title/tt1727358/



Synopsis:
people win a competition of a lifetime; Jo (Scarlett Alice Johnson – Adulthood), Max (Jack Gordon – Heartless) Gwen (Elen Rhys – Season Of The Witch) and Dave (Michael Jibson – The Bank Job) head off on an all expenses paid trip to New York, courtesy of social network All2gethr.com. As they board the private jet, they are asked to relinquish their mobile phones and take part in the in-flight entertainment – a new online gaming experience.
Wupload :
http://www.wupload.com/file/22114713...ALOG.part1.rar
http://www.wupload.com/file/22114714...ALOG.part2.rar

Fileserve :
http://www.fileserve.com/file/qqSHRd...ALOG.part1.rar
http://www.fileserve.com/file/wbKDqU...ALOG.part2.rar

Filejungle :
http://www.filejungle.com/f/wgCXej/P...ALOG.part1.rar
http://www.filejungle.com/f/Yfc7T8/P...ALOG.part2.rar

Filesonic :
http://www.filesonic.com/file/344383...ALOG.part1.rar
http://www.filesonic.com/file/344383...ALOG.part2.rar

PLEASE REPLY IF YOU LIKE MY POST!

SCREENSHOT :


NFO :
General
Complete name : P.B.BRR.ANALOG.avi
Format : AVI
Format/Info : Audio Video Interleave
File size : 1.36 GiB
Duration : 1h 35mn
Overall bit rate : 2 041 Kbps
Movie name : P.B.BRR.ANALOG
Writing application : VirtualDub build 32842/release
Copyright : ANALOG

Video
ID : 0
Format : MPEG-4 Visual
Format profile : Advanced [email protected]
Format settings, BVOP : 1
Format settings, QPel : No
Format settings, GMC : No warppoints
Format settings, Matrix : Default (H.263)
Muxing mode : Packed bitstream
Codec ID : XVID
Codec ID/Hint : XviD
Duration : 1h 35mn
Bit rate : 1 648 Kbps
Width : 720 pixels
Height : 304 pixels
Display aspect ratio : 2.35:1
Frame rate : 23.976 fps
Color space : YUV
Chroma subsampling : 4:2:0
Bit depth : 8 bits
Scan type : Progressive
Compression mode : Lossy
Bits/(Pixel*Frame) : 0.314
Stream size : 1.10 GiB (81%)
Writing library : XviD 1.2.1 (UTC 2008-12-04)

Audio
ID : 1
Format : AC-3
Format/Info : Audio Coding 3
Mode extension : CM (complete main)
Codec ID : 2000
Duration : 1h 35mn
Bit rate mode : Constant
Bit rate : 384 Kbps
Channel(s) : 6 channels
Channel positions : Front: L C R, Side: L R, LFE
Sampling rate : 48.0 KHz
Bit depth : 16 bits
Compression mode : Lossy
Stream size : 263 MiB (19%)
Alignment : Aligned on interleaves
Interleave, duration : 42 ms (1.00 video frame)
Interleave, preload duration : 512 ms
Language : un