Texas.Killing.Fields.2011.DVDRip.XVID.AC3.HQ.Hive-CM8



IMDB :
http://www.imdb.com/title/tt1389127/



Synopsis:
Souder, a homicide detective in a small Texan town, and his partner, transplanted New York City cop Detective Heigh, track a sadistic serial killer dumping his victims’ mutilated bodies in a nearby marsh locals call ‘The Killing Fields’. Though the swampland crime scenes are outside their jurisdiction, Detective Heigh is unable to turn his back on solving the gruesome murders. Despite his partner’s warnings, he sets out to investigate the crimes. Before long, the killer changes the game and begins hunting the detectives, teasing them with possible clues at the crime scenes while always remaining one step ahead. When familiar local girl Anne goes missing, the detectives find themselves racing against time to catch the killer and save the young girl’s life.
Wupload :
http://www.wupload.com/file/22108255...-CM8.part1.rar
http://www.wupload.com/file/22108509...-CM8.part2.rar
http://www.wupload.com/file/22108509...-CM8.part3.rar

Fileserve :
http://www.fileserve.com/file/BSuDDa...-CM8.part1.rar
http://www.fileserve.com/file/ByMezR...-CM8.part2.rar
http://www.fileserve.com/file/3ACvf2...-CM8.part3.rar

Filejungle :
http://www.filejungle.com/f/FSDZXv/T...-CM8.part1.rar
http://www.filejungle.com/f/WF4UBv/T...-CM8.part2.rar
http://www.filejungle.com/f/jND8NQ/T...-CM8.part3.rar

Filesonic :
http://www.filesonic.com/file/344089...-CM8.part1.rar
http://www.filesonic.com/file/344090...-CM8.part2.rar
http://www.filesonic.com/file/344091...-CM8.part3.rar

PLEASE REPLY IF YOU LIKE MY POST!

SCREENSHOT :


NFO :
General
Complete name : Texas.Killing.Fields.2011.DVDRip.XVID.AC3.HQ.Hive-CM8.avi
Format : AVI
Format/Info : Audio Video Interleave
File size : 1.61 GiB
Duration : 1h 44mn
Overall bit rate : 2 193 Kbps
Writing application : Nandub v1.0rc2
Writing library : Nandub build 1853/release

Video
ID : 0
Format : MPEG-4 Visual
Format profile : Advanced [email protected]
Format settings, BVOP : 2
Format settings, QPel : Yes
Format settings, GMC : No warppoints
Format settings, Matrix : Default (H.263)
Muxing mode : Packed bitstream
Codec ID : XVID
Codec ID/Hint : XviD
Duration : 1h 44mn
Bit rate : 1 799 Kbps
Width : 720 pixels
Height : 400 pixels
Display aspect ratio : 16:9
Frame rate : 23.976 fps
Color space : YUV
Chroma subsampling : 4:2:0
Bit depth : 8 bits
Scan type : Progressive
Compression mode : Lossy
Bits/(Pixel*Frame) : 0.261
Stream size : 1.32 GiB (82%)
Writing library : XviD 1.2.1 (UTC 2008-12-04)

Audio
ID : 1
Format : AC-3
Format/Info : Audio Coding 3
Mode extension : CM (complete main)
Codec ID : 2000
Duration : 1h 44mn
Bit rate mode : Constant
Bit rate : 384 Kbps
Channel(s) : 6 channels
Channel positions : Front: L C R, Side: L R, LFE
Sampling rate : 48.0 KHz
Bit depth : 16 bits
Compression mode : Lossy
Stream size : 288 MiB (18%)
Alignment : Split accross interleaves
Interleave, duration : 42 ms (1.00 video frame)
Interleave, preload duration : 500 ms