Coffin.2011.DVDRip.XviD-playXD



IMDB :
http://www.imdb.com/title/tt1667416/



Synopsis:
A masked stranger reveals to Jack that his estranged wife and her lover are buried underground in a wooden box and their oxygen will run out in 75 minutes. He must engage in a dangerous game of cat and mouse with the masked stranger in order to save his wife…and himself.
Wupload :
http://www.wupload.com/file/22101906...viD-playXD.rar

Fileserve :
http://www.fileserve.com/file/yb2v3e...viD-playXD.rar

Filejungle :
http://www.filejungle.com/f/S755sJ/C...viD-playXD.rar

Filesonic :
http://www.filesonic.com/file/343978...viD-playXD.rar

PLEASE REPLY IF YOU LIKE MY POST!

SCREENSHOT :


NFO :
General
Complete name : Coffin.2011.DVDRip.XviD-playXD.avi
Format : AVI
Format/Info : Audio Video Interleave
File size : 704 MiB
Duration : 1h 25mn
Overall bit rate : 1 149 Kbps
Writing application : VirtualDubMod 1.5.10.2 (build 2542/release)
Writing library : VirtualDubMod build 2542/release

Video
ID : 0
Format : MPEG-4 Visual
Format profile : Advanced [email protected]
Format settings, BVOP : 3
Format settings, QPel : No
Format settings, GMC : No warppoints
Format settings, Matrix : Default (H.263)
Muxing mode : Packed bitstream
Codec ID : XVID
Codec ID/Hint : XviD
Duration : 1h 25mn
Bit rate : 1 011 Kbps
Width : 640 pixels
Height : 360 pixels
Display aspect ratio : 16:9
Frame rate : 25.000 fps
Color space : YUV
Chroma subsampling : 4:2:0
Bit depth : 8 bits
Scan type : Progressive
Compression mode : Lossy
Bits/(Pixel*Frame) : 0.176
Stream size : 620 MiB (88%)
Writing library : XviD 1.2.1 (UTC 2008-12-04)

Audio
ID : 1
Format : MPEG Audio
Format version : Version 1
Format profile : Layer 3
Mode : Joint stereo
Mode extension : MS Stereo
Codec ID : 55
Codec ID/Hint : MP3
Duration : 1h 25mn
Bit rate mode : Constant
Bit rate : 128 Kbps
Channel(s) : 2 channels
Sampling rate : 48.0 KHz
Compression mode : Lossy
Stream size : 78.5 MiB (11%)
Alignment : Aligned on interleaves
Interleave, duration : 40 ms (1.00 video frame)
Interleave, preload duration : 504 ms