INFO:

Complete name : House Of The Rising Sun [2011] Dvdrip - PRESTiGE.avi
Format : AVI
Format/Info : Audio Video Interleave
File size : 701 MiB
Duration : 1h 27mn
Overall bit rate : 1 118 Kbps
IMDB: http://www.imdb.com/title/tt1788383/
Encoder:Twisted
Source: House.Of.The.Rising.Sun.2011.R1.NTSC.MULTi.DVDR-CoRa

VIDEO

ID : 0
Format : MPEG-4 Visual
Format profile : Advanced [email protected]
Format settings, BVOP : 2
Format settings, QPel : No
Format settings, GMC : No warppoints
Format settings, Matrix : Default (H.263)
Muxing mode : Packed bitstream
Codec ID : XVID
Codec ID/Hint : XviD
Duration : 1h 27mn
Bit rate : 981 Kbps
Width : 720 pixels
Height : 400 pixels
Display aspect ratio : 16:9
Frame rate : 23.976 fps
Color space : YUV
Chroma subsampling : 4:2:0
Bit depth : 8 bits
Scan type : Progressive
Compression mode : Lossy
Bits/(Pixel*Frame) : 0.142
Stream size : 615 MiB (88%)
Writing library : XviD 63

AUDIO


ID : 1
Format : MPEG Audio
Format version : Version 1
Format profile : Layer 3
Mode : Joint stereo
Mode extension : MS Stereo
Codec ID : 55
Codec ID/Hint : MP3
Duration : 1h 27mn
Bit rate mode : Constant
Bit rate : 128 Kbps
Channel(s) : 2 channels
Sampling rate : 44.1 KHz
Compression mode : Lossy
Delay relative to video : 26ms
Stream size : 80.2 MiB (11%)
Alignment : Split accross interleaves
Interleave, duration : 42 ms (1.00 video frame)
Interleave, preload duration : 500 ms

Additional Info: Ray, an ex-con, is starting a new life looking to stay out of trouble. One evening, on Ray?s watch, the nightclub he works for is robbed and the owner?s son is shot dead. As his criminal past is exposed Ray hunts for the person responsible for this crime in an effort to clear his own name. Ray must get to the bottom of this as both the mob and cops start to close in on him as their target suspect.


SCREENSHOTS:


Single Link

http://www.fileserve.com/file/k5rS7c...-_PRESTiGE.avi
Or
http://www.filesonic.com/file/327167...-_PRESTiGE.avi


Download from wupload.com

http://www.wupload.com/file/2112454472/Hotrs - PRESTiGE.part1.rar
http://www.wupload.com/file/2112454437/Hotrs - PRESTiGE.part2.rar
http://www.wupload.com/file/2112454397/Hotrs - PRESTiGE.part3.rar


Download from fileserve.com
http://www.fileserve.com/file/33cyqA...TiGE.part1.rar
http://www.fileserve.com/file/bAaunb...TiGE.part2.rar
http://www.fileserve.com/file/Y3WXnY...TiGE.part3.rar

Download from filejungle.com
http://www.filejungle.com/f/UVF3Uz/H...TiGE.part1.rar
http://www.filejungle.com/f/fUCnDt/H...TiGE.part2.rar
http://www.filejungle.com/f/6DUm6p/H...TiGE.part3.rar

Download from filesonic.com
http://www.filesonic.com/file/327174...TiGE.part1.rar
http://www.filesonic.com/file/327174...TiGE.part2.rar
http://www.filesonic.com/file/327174...TiGE.part3.rar