Moneyball 2011 CAM XviD-BBnRG

iNFo:
Format : AVI
Format/Info : Audio Video Interleave
File size : 1.45 GiB
Duration : 2h 6mn
Overall bit rate : 1 630 Kbps

Video

ID : 0
Format : MPEG-4 Visual
Format profile : [email protected]
Format settings, BVOP : No
Format settings, QPel : No
Format settings, GMC : No warppoints
Format settings, Matrix : Default (H.263)
Codec ID : XVID
Codec ID/Hint : XviD
Duration : 2h 6mn
Bit rate : 1 490 Kbps
Width : 688 pixels
Height : 272 pixels
Display aspect ratio : 2.529
Frame rate : 29.970 fps
Color space : YUV
Chroma subsampling : 4:2:0
Bit depth : 8 bits
Scan type : Progressive
Compression mode : Lossy
Bits/(Pixel*Frame) : 0.266
Stream size : 1.32 GiB (91%)
Writing library : XviD 57

Audio

ID : 1
Format : MPEG Audio
Format version : Version 1
Format profile : Layer 3
Mode : Joint stereo
Mode extension : MS Stereo
Codec ID : 55
Codec ID/Hint : MP3
Duration : 2h 6mn
Bit rate mode : Constant
Bit rate : 128 Kbps
Channel(s) : 2 channels
Sampling rate : 44.1 KHz
Compression mode : Lossy
Stream size : 116 MiB (8%)
Alignment : Split accross interleaves
Interleave, duration : 33 ms (1.00 video frame)
Interleave, preload duration : 500 ms
Writing library : LAME3.98r

http://www.imdb.com/title/tt1210166/

Encoder: FridayToker :pimp:
Source(s): MiSTERE (thanks)
Notes: Not The Best CAM Ever, But It's Here For The One's Who Want It.

Another fine release from BBnRG.



1-LINK:
http://www.wupload.com/file/21610527...XviD-BBnRG.rar
Or
http://www.filesonic.com/file/341806...XviD-BBnRG.rar
Or
http://www.fileserve.com/file/jg7MEx...XviD-BBnRG.rar

450mb-iNTERCHANGEABLE:
http://www.wupload.com/file/21609988....avi.part1.rar
http://www.wupload.com/file/21609954....avi.part2.rar
http://www.wupload.com/file/21610175....avi.part3.rar
http://www.wupload.com/file/21609827....avi.part4.rar
Or
http://www.filesonic.com/file/341805....avi.part1.rar
http://www.filesonic.com/file/341800....avi.part2.rar
http://www.filesonic.com/file/341800....avi.part3.rar
http://www.filesonic.com/file/341790....avi.part4.rar
Or
http://www.fileserve.com/file/R35YXY....avi.part1.rar
http://www.fileserve.com/file/tVcdk8....avi.part2.rar
http://www.fileserve.com/file/QQbSTn....avi.part3.rar
http://www.fileserve.com/file/nJZZxD....avi.part4.rar
Please-Say-Thanks-To-Keep-The-Topic-Alive.