Black.Butterflies.2011.m720p.Bluray.x264.Jewelraz



IMDB :
http://www.imdb.com/title/tt0906778/



Synopsis:
She searched for a home, she searched for love. Confronted by Apartheid and a father who was Minister of censorship. With men like Jack Cope and Andre Brink she found much love, but no home. In his first speech to the South African Parliament Nelson Mandela read her poem “The Dead Child of Nyanga” and addresses her as one of the finest poets of South Africa.
Wupload :
http://www.wupload.com/file/21567385...lraz.part1.rar
http://www.wupload.com/file/21568748...lraz.part2.rar
http://www.wupload.com/file/21568804...lraz.part3.rar
http://www.wupload.com/file/21568701...lraz.part4.rar

Fileserve :
http://www.fileserve.com/file/zCfwWs...lraz.part1.rar
http://www.fileserve.com/file/PEBwNk...lraz.part2.rar
http://www.fileserve.com/file/EfrWKK...lraz.part3.rar
http://www.fileserve.com/file/xasCx5...lraz.part4.rar

Filejungle :
http://www.filejungle.com/f/RGWzHX/B...lraz.part1.rar
http://www.filejungle.com/f/JF8upX/B...lraz.part2.rar
http://www.filejungle.com/f/be2ejp/B...lraz.part3.rar
http://www.filejungle.com/f/Wp8exq/B...lraz.part4.rar

Filesonic :
http://www.filesonic.com/file/341179...lraz.part1.rar
http://www.filesonic.com/file/341179...lraz.part2.rar
http://www.filesonic.com/file/341180...lraz.part3.rar
http://www.filesonic.com/file/341181...lraz.part4.rar

PLEASE REPLY IF YOU LIKE MY POST!

SCREENSHOT :


NFO :
Release Name: Black.Butterflies.2011.m720p.Bluray.x264.Jewelraz
Filesize: 2.08 GB
Runtime: 1hr 39min 25sec
Bitrate: 2990 kbps
Audio Codec: AC3, 48khz, 5:1
Resolution: 1280*544
FPS: 24
Language: English
Subtitle: None
Source: 720p Bluray

Format : Matroska
Format version : Version 2
File size : 2.08 GiB
Duration : 1h 39mn
Overall bit rate : 2 989 Kbps
Encoded date : UTC 2011-11-10 17:54:13
Writing application : mkvmerge v5.0.0 ('Die Wahre Liebe') built on Sep 25 2011 20:33:49
Writing library : libebml v1.2.2 + libmatroska v1.3.0

Video
ID : 1
Format : AVC
Format/Info : Advanced Video Codec
Format profile : [email protected]
Format settings, CABAC : Yes
Format settings, ReFrames : 12 frames
Muxing mode : Header stripping
Codec ID : V_MPEG4/ISO/AVC
Duration : 1h 39mn
Bit rate : 2 540 Kbps
Width : 1 280 pixels
Height : 544 pixels
Display aspect ratio : 2.35:1
Frame rate : 24.000 fps
Color space : YUV
Chroma subsampling : 4:2:0
Bit depth : 8 bits
Scan type : Progressive
Bits/(Pixel*Frame) : 0.152
Stream size : 1.72 GiB (83%)
Writing library : x264 core 116 r2074 2641b9e


Audio
ID : 2
Format : AC-3
Format/Info : Audio Coding 3
Mode extension : CM (complete main)
Muxing mode : Header stripping
Codec ID : A_AC3
Duration : 1h 39mn
Bit rate mode : Constant
Bit rate : 448 Kbps
Channel(s) : 6 channels
Channel positions : Front: L C R, Side: L R, LFE
Sampling rate : 48.0 KHz
Bit depth : 16 bits
Compression mode : Lossy
Stream size : 319 MiB (15%)