A Dangerous Method 2011 CAM XViD-DTRG

iNFo:
http://www.imdb.com/title/tt1571222/
Format : AVI
Format/Info : Audio Video Interleave
File size : 1.29 GiB
Duration : 1h 33mn
Overall bit rate : 1 975 Kbps
Writing library : VirtualDub build 32842/release

Video
ID : 0
Format : MPEG-4 Visual
Format profile : Advanced [email protected]
Format settings, BVOP : 2
Format settings, QPel : No
Format settings, GMC : No warppoints
Format settings, Matrix : Default (H.263)
Muxing mode : Packed bitstream
Codec ID : XVID
Codec ID/Hint : XviD
Duration : 1h 33mn
Bit rate : 1 842 Kbps
Width : 672 pixels
Height : 358 pixels
Display aspect ratio : 1.877
Frame rate : 25.000 fps
Color space : YUV
Chroma subsampling : 4:2:0
Bit depth : 8 bits
Scan type : Progressive
Compression mode : Lossy
Bits/(Pixel*Frame) : 0.306
Stream size : 1.20 GiB (93%)
Writing library : XviD 64

Audio
ID : 1
Format : MPEG Audio
Format version : Version 1
Format profile : Layer 3
Mode : Joint stereo
Mode extension : MS Stereo
Codec ID : 55
Codec ID/Hint : MP3
Duration : 1h 33mn
Bit rate mode : Variable
Bit rate : 120 Kbps
Channel(s) : 2 channels
Sampling rate : 48.0 KHz
Compression mode : Lossy
Stream size : 80.0 MiB (6%)
Alignment : Aligned on interleaves
Interleave, duration : 24 ms (0.60 video frame)
Interleave, preload duration : 509 ms



1-LINK:
http://www.wupload.com/file/21314347....XViD.DTRG.rar
Or
http://www.filesonic.com/file/332400....XViD.DTRG.rar
Or
http://www.fileserve.com/file/qdEXVr....XViD.DTRG.rar

450mb-iNTERCHANGEABLE:
http://www.filesonic.com/file/333779....avi.part1.rar
http://www.filesonic.com/file/333789....avi.part2.rar
http://www.filesonic.com/file/333779....avi.part3.rar
Or
http://www.wupload.com/file/21397781....avi.part1.rar
http://www.wupload.com/file/21397781....avi.part2.rar
http://www.wupload.com/file/21397780....avi.part3.rar
Or
http://www.fileserve.com/file/ync9WB....avi.part1.rar
http://www.fileserve.com/file/Aw4JhM....avi.part2.rar
http://www.fileserve.com/file/Uhp9uu....avi.part3.rar
Please-Say-Thanks-To-Keep-The-Topic-Alive.