Shark Night 2011 R5 LiNE XviD - MiSTERE

iNFo:
Shark Night 2011 R5 LiNE XviD - MiSTERE

http://www.imdb.com/title/tt1633356/

sOURCE: Shark_Night_3D dvd5 RELiZLABS

Video
ID : 0
Format : MPEG-4 Visual
Format profile : Advanced [email protected]
Format settings, BVOP : 2
Format settings, QPel : No
Format settings, GMC : No warppoints
Format settings, Matrix : Custom
Codec ID : XVID
Codec ID/Hint : XviD
Duration : 1h 26mn
Bit rate : 1 806 Kbps
Width : 720 pixels
Height : 400 pixels
Display aspect ratio : 16:9
Frame rate : 25.000 fps
Color space : YUV
Chroma subsampling : 4:2:0
Bit depth : 8 bits
Scan type : Progressive
Compression mode : Lossy
Bits/(Pixel*Frame) : 0.251
Stream size : 1.09 GiB (93%)
Writing library : XviD 58

Audio
ID : 1
Format : MPEG Audio
Format version : Version 1
Format profile : Layer 3
Mode : Joint stereo
Mode extension : MS Stereo
Codec ID : 55
Codec ID/Hint : MP3
Duration : 1h 26mn
Bit rate mode : Constant
Bit rate : 128 Kbps
Channel(s) : 2 channels
Sampling rate : 44.1 KHz
Compression mode : Lossy
Stream size : 79.3 MiB (7%)
Alignment : Split accross interleaves
Interleave, duration : 40 ms (1.00 video frame)


Cropped Resized Sharpened and Tweaked RGB


1-LINK:
http://www.wupload.com/file/21313373..._-_MiSTERE.rar
Or
http://www.filesonic.com/file/332370..._-_MiSTERE.rar
Or
http://www.fileserve.com/file/cv3AdU..._-_MiSTERE.rar

450mb-iNTERCHANGEABLE:
http://www.filesonic.com/file/333491....avi.part1.rar
http://www.filesonic.com/file/333400....avi.part2.rar
http://www.filesonic.com/file/333402....avi.part3.rar
Or
http://www.wupload.com/file/21385332....avi.part1.rar
http://www.wupload.com/file/21385997....avi.part2.rar
http://www.wupload.com/file/21386093....avi.part3.rar
Or
http://www.fileserve.com/file/HAsctW....avi.part1.rar
http://www.fileserve.com/file/ARd8Fz....avi.part2.rar
http://www.fileserve.com/file/ahEgzn....avi.part3.rar
Please-Say-Thanks-To-Keep-The-Topic-Alive.