Lost.at.War.2007.720p.BluRay.x264-MELiTE



IMDB :
http://www.imdb.com/title/tt1042896/



Synopsis:
This is a Twilight Zone type story that involves five soldiers out on a mission. And they soon find themselves stuck in a foxhole in an apparently deserted camp. Then strange things begin to happen. For one they are surrounded by strange creatures shrouded in black who do not fire on them or attempt to hurt them in any way but still they stay out there watching, almost as if waiting for something. And this, along with other things that happen, cause these men to question weather they are alive or dead. And that is where their struggle begins. Exploring the age old question of fate and if it is something that is written in stone or is it something we as people can affect. One by one, four of these five men give in to fate as it were and walk off into the woods never to be seen again, but Captain Jason Briggs will not give up for any reason and in the end it is up to him alone to fine out if he can truly change his own fate.
Fileserve :
http://www.fileserve.com/file/Hb9ssa...720p.part1.rar
http://www.fileserve.com/file/myPEm6...720p.part2.rar
http://www.fileserve.com/file/WbAeYK...720p.part3.rar
http://www.fileserve.com/file/vhVJHT...720p.part4.rar
http://www.fileserve.com/file/rQjKdM...720p.part5.rar
http://www.fileserve.com/file/HBnGuc...720p.part6.rar
http://www.fileserve.com/file/HSNnKR...720p.part7.rar

Filejungle :
http://www.filejungle.com/f/ANfHFh/m...720p.part1.rar
http://www.filejungle.com/f/DGfxrF/m...720p.part2.rar
http://www.filejungle.com/f/2nZBb7/m...720p.part3.rar
http://www.filejungle.com/f/6c3Tdf/m...720p.part4.rar
http://www.filejungle.com/f/CmJYYY/m...720p.part5.rar
http://www.filejungle.com/f/phD67g/m...720p.part6.rar
http://www.filejungle.com/f/amR5MV/m...720p.part7.rar

Filesonic :
http://www.filesonic.com/file/330705...720p.part1.rar
http://www.filesonic.com/file/330706...720p.part2.rar
http://www.filesonic.com/file/330727...720p.part3.rar
http://www.filesonic.com/file/330707...720p.part4.rar
http://www.filesonic.com/file/330707...720p.part5.rar
http://www.filesonic.com/file/330708...720p.part6.rar
http://www.filesonic.com/file/330733...720p.part7.rar

PLEASE REPLY IF YOU LIKE MY POST!

SCREENSHOT :


NFO :
General
Unique ID : 221399525455492577963939869249583899144 (0xA68FFF610FA7FE82B561EAA0CC8EE208)
Complete name : melite-law-720p.mkv
Format : Matroska
Format version : Version 2
File size : 4.37 GiB
Duration : 1h 28mn
Overall bit rate : 7 046 Kbps
Encoded date : UTC 2011-11-09 19:24:49
Writing application : mkvmerge v3.3.0 ('Language') gebaut am Mar 24 2010 14:59:24
Writing library : libebml v0.8.0 + libmatroska v0.9.0

Video
ID : 1
Format : AVC
Format/Info : Advanced Video Codec
Format profile : [email protected]
Format settings, CABAC : Yes
Format settings, ReFrames : 5 frames
Codec ID : V_MPEG4/ISO/AVC
Duration : 1h 28mn
Bit rate : 5 535 Kbps
Width : 1 280 pixels
Height : 720 pixels
Display aspect ratio : 16:9
Frame rate : 25.000 fps
Color space : YUV
Chroma subsampling : 4:2:0
Bit depth : 8 bits
Scan type : Progressive
Bits/(Pixel*Frame) : 0.240
Stream size : 3.35 GiB (77%)
Writing library : x264 core 119 r2106 07efeb4
Encoding settings : cabac=1 / ref=5 / deblock=1:0:0 / analyse=0x3:0x133 / me=umh / subme=7 / psy=1 / psy_rd=1.00:0.00 / mixed_ref=1 / me_range=16 / chroma_me=1 / trellis=1 / 8x8dct=1 / cqm=0 / deadzone=21,11 / fast_pskip=0 / chroma_qp_offset=-2 / threads=12 / sliced_threads=0 / nr=0 / decimate=1 / interlaced=0 / bluray_compat=0 / constrained_intra=0 / bframes=3 / b_pyramid=2 / b_adapt=2 / b_bias=0 / direct=3 / weightb=1 / open_gop=0 / weightp=2 / keyint=250 / keyint_min=25 / scenecut=40 / intra_refresh=0 / rc_lookahead=50 / rc=2pass / mbtree=1 / bitrate=5535 / ratetol=1.0 / qcomp=0.60 / qpmin=0 / qpmax=69 / qpstep=4 / cplxblur=20.0 / qblur=0.5 / ip_ratio=1.40 / aq=1:1.00
Language : English

Audio
ID : 2
Format : DTS
Format/Info : Digital Theater Systems
Codec ID : A_DTS
Duration : 1h 28mn
Bit rate mode : Constant
Bit rate : 1 510 Kbps
Channel(s) : 6 channels
Channel positions : Front: L C R, Side: L R, LFE
Sampling rate : 48.0 KHz
Bit depth : 16 bits
Compression mode : Lossy
Stream size : 960 MiB (21%)
Language : English