+ Viết bài mới
Hiện kết quả từ 1 tới 1 của 1
  1. #1
    Tham gia ngày
    Sep 2011
    Bài gửi
    2.467
    Thanks
    0
    Thanked 0 Times in 0 Posts
    Năng lực viết bài
    354

    Mặc định The Devils Double LIMITED 2011 BRRip 720p x264 Feel-Free

    The.Devils.Double.LIMITED.2011.BRRip.720p.x264.Feel-Free



    IMDB :
    http://www.imdb.com/title/tt1270262/



    Synopsis:
    A chilling vision of the House of Saddam Hussein comes to life through the eyes of the man who was forced to become the double of Hussein's sadistic son.
    Wupload :
    http://www.wupload.com/file/21110323...Free.part1.rar
    http://www.wupload.com/file/21123180...Free.part2.rar
    http://www.wupload.com/file/21123211...Free.part3.rar
    http://www.wupload.com/file/21011023...Free.part4.rar

    Fileserve :
    http://www.fileserve.com/file/Qp9pEu...Free.part1.rar
    http://www.fileserve.com/file/qSGs4v...Free.part2.rar
    http://www.fileserve.com/file/BueqyD...Free.part3.rar
    http://www.fileserve.com/file/h3XCcQ...Free.part4.rar

    Filejungle :
    http://www.filejungle.com/f/hsxR4n/T...Free.part1.rar
    http://www.filejungle.com/f/5bEDBD/T...Free.part2.rar
    http://www.filejungle.com/f/ZZTqJR/T...Free.part3.rar
    http://www.filejungle.com/f/nK9629/T...Free.part4.rar

    Filesonic :
    http://www.filesonic.com/file/329961...Free.part1.rar
    http://www.filesonic.com/file/329961...Free.part2.rar
    http://www.filesonic.com/file/329963...Free.part3.rar
    http://www.filesonic.com/file/329963...Free.part4.rar

    PLEASE REPLY IF YOU LIKE MY POST!

    SCREENSHOT :


    NFO :
    General
    Complete name : The.Devils.Double.LIMITED.2011.BRRip.720p.x264.Feel-Free.mp4
    Format : MPEG-4
    Format profile : Base Media
    Codec ID : isom
    File size : 2.59 GiB
    Duration : 1h 48mn
    Overall bit rate : 3 411 Kbps
    Encoded date : UTC 2011-11-08 16:15:36
    Tagged date : UTC 2011-11-08 16:15:36

    Video
    ID : 1
    Format : AVC
    Format/Info : Advanced Video Codec
    Format profile : [email protected]
    Format settings, CABAC : Yes
    Format settings, ReFrames : 3 frames
    Codec ID : avc1
    Codec ID/Info : Advanced Video Coding
    Duration : 1h 48mn
    Bit rate mode : Variable
    Bit rate : 3 000 Kbps
    Maximum bit rate : 24.6 Mbps
    Width : 1 280 pixels
    Height : 544 pixels
    Display aspect ratio : 2.35:1
    Frame rate mode : Constant
    Frame rate : 23.976 fps
    Color space : YUV
    Chroma subsampling : 4:2:0
    Bit depth : 8 bits
    Scan type : Progressive
    Bits/(Pixel*Frame) : 0.180
    Stream size : 2.26 GiB (87%)
    Writing library : x264 core 75 r1251kMod e553a4c
    Encoding settings : cabac=1 / ref=3 / deblock=1:0:0 / analyse=0x3:0x113 / me=umh / subme=7 / psy=1 / psy_rd=1.0:0.0 / mixed_ref=1 / me_range=12 / chroma_me=1 / trellis=2 / 8x8dct=1 / cqm=0 / deadzone=21,11 / chroma_qp_offset=-2 / threads=3 / nr=0 / decimate=1 / mbaff=0 / bframes=3 / b_pyramid=0 / b_adapt=2 / b_bias=0 / direct=1 / wpredb=1 / keyint=250 / keyint_min=25 / scenecut=40 / rc_lookahead=60 / rc=cbr / mbtree=1 / bitrate=3000 / ratetol=1.0 / qcomp=0.50 / qpmin=10 / qpmax=51 / qpstep=4 / vbv_maxrate=24000 / vbv_bufsize=24000 / ip_ratio=1.40 / aq=1:1.00
    Encoded date : UTC 2011-11-08 16:15:36
    Tagged date : UTC 2011-11-08 16:28:52

    Audio
    ID : 2
    Format : AAC
    Format/Info : Advanced Audio Codec
    Format profile : LC
    Codec ID : 40
    Duration : 1h 48mn
    Bit rate mode : Variable
    Bit rate : 438 Kbps
    Maximum bit rate : 518 Kbps
    Channel(s) : 6 channels
    Channel positions : Front: L C R, Side: L R, LFE
    Sampling rate : 48.0 KHz
    Compression mode : Lossy
    Stream size : 341 MiB (13%)
    Encoded date : UTC 2011-11-08 16:27:16
    Tagged date : UTC 2011-11-08 16:28:52
    Lần sửa cuối bởi tuanq82; 11-11-2011 lúc 12:42 AM

+ Viết bài mới

Thread Information

Users Browsing this Thread

There are currently 1 users browsing this thread. (0 members and 1 guests)

Quyền viết bài

  • Bạn không thể gửi chủ đề mới
  • Bạn không thể gửi trả lời
  • Bạn không thể gửi file đính kèm
  • Bạn không thể sửa bài viết của mình
  •