Snow Beast 2011 DVDRip XviD AC3 - CrEwSaDe

iNFo:
http://www.imdb.com/title/tt1623765/
General
Complete name : E:\Snow.Beast.2011.DVDRip.XviD.AC3.CrEwSaDe\Snow.Beast.2011.DVDRip.XviD.AC3.CrEwSaDe.avi
Format : AVI
Format/Info : Audio Video Interleave
File size : 698 MiB
Duration : 1h 30mn
Overall bit rate : 1 076 Kbps

Video
ID : 0
Format : MPEG-4 Visual
Format profile : Advanced [email protected]
Format settings, BVOP : 2
Format settings, QPel : No
Format settings, GMC : No warppoints
Format settings, Matrix : Default (H.263)
Codec ID : XVID
Codec ID/Hint : XviD
Duration : 1h 30mn
Bit rate : 940 Kbps
Width : 720 pixels
Height : 384 pixels
Display aspect ratio : 1.875
Frame rate : 23.976 fps
Color space : YUV
Chroma subsampling : 4:2:0
Bit depth : 8 bits
Scan type : Progressive
Compression mode : Lossy
Bits/(Pixel*Frame) : 0.142
Stream size : 610 MiB (87%)
Writing library : XviD 1.2.1 (UTC 2008-12-04)

Audio
ID : 1
Format : AC-3
Format/Info : Audio Coding 3
Mode extension : CM (complete main)
Codec ID : 2000
Duration : 1h 30mn
Bit rate mode : Constant
Bit rate : 128 Kbps
Channel(s) : 6 channels
Channel positions : Front: L C R, Side: L R, LFE
Sampling rate : 48.0 KHz
Bit depth : 16 bits
Compression mode : Lossy
Stream size : 83.0 MiB (12%)
Alignment : Aligned on interleaves
Interleave, duration : 64 ms (1.53 video frames)
Interleave, preload duration : 192 ms
Title : VTS_04_1 T80 3_2ch 448Kbps DELAY 0ms



1-LINK:
http://www.filesonic.com/file/328969...3.CrEwSaDe.avi
Or
http://www.wupload.com/file/20987079...3.CrEwSaDe.avi
Or
http://www.filesonic.com/file/329059...EwSaDe.avi.rar
Or
http://www.fileserve.com/file/xx3hV4...EwSaDe.avi.rar
Please-Say-Thanks-To-Keep-The-Topic-Alive.