The.River.Why.2010.DVDRip.XviD-playXD



IMDB :
http://www.imdb.com/title/tt1241329/



Synopsis:
A fisherman abandons his big-city life to find himself in the wild.
Wupload :
http://www.wupload.com/file/20614510...xd-trw.avi.rar

Fileserve :
http://www.fileserve.com/file/vjMvsh...xd-trw.avi.rar

Filejungle :
http://www.www.filejungle.com/f/guvt...xd-trw.avi.rar

Filesonic :
http://www.filesonic.com/file/326976...xd-trw.avi.rar

PLEASE REPLY IF YOU LIKE MY POST!

SCREENSHOT :


NFO :
General
Complete name : playxd-trw.avi
Format : AVI
Format/Info : Audio Video Interleave
File size : 707 MiB
Duration : 1h 44mn
Overall bit rate : 948 Kbps

Video
ID : 0
Format : MPEG-4 Visual
Format profile : [email protected]
Format settings, BVOP : No
Format settings, QPel : No
Format settings, GMC : No warppoints
Format settings, Matrix : Default (H.263)
Codec ID : XVID
Codec ID/Hint : XviD
Duration : 1h 44mn
Bit rate : 807 Kbps
Width : 640 pixels
Height : 272 pixels
Display aspect ratio : 2.35:1
Frame rate : 23.976 fps
Color space : YUV
Chroma subsampling : 4:2:0
Bit depth : 8 bits
Scan type : Progressive
Compression mode : Lossy
Bits/(Pixel*Frame) : 0.193
Stream size : 602 MiB (85%)
Writing library : XviD 1.1.2 (UTC 2006-11-01)

Audio
ID : 1
Format : MPEG Audio
Format version : Version 1
Format profile : Layer 3
Mode : Joint stereo
Mode extension : MS Stereo
Codec ID : 55
Codec ID/Hint : MP3
Duration : 1h 44mn
Bit rate mode : Constant
Bit rate : 128 Kbps
Channel(s) : 2 channels
Sampling rate : 48.0 KHz
Compression mode : Lossy
Stream size : 95.5 MiB (13%)
Alignment : Split accross interleaves
Interleave, duration : 24 ms (0.58 video frame)