Panic.Button.2011.DVDRip.XVID-DSL



IMDB :
http://www.imdb.com/title/tt1727358/



Synopsis:
Have You Read The Terms & Conditions?
Wupload :
http://www.wupload.com/file/20561493...p.XVID-DSL.rar

Fileserve :
http://www.fileserve.com/file/75mbsP...p.XVID-DSL.rar

Filejungle :
http://www.filejungle.com/f/sS3eqd/P...p.XVID-DSL.rar

Filesonic :
http://www.filesonic.com/file/326829...p.XVID-DSL.rar

PLEASE REPLY IF YOU LIKE MY POST!

SCREENSHOT :


NFO :
General
Complete name : Panic.Button.2011.DVDRip.XVID-DSL.avi
Format : AVI
Format/Info : Audio Video Interleave
File size : 697 MiB
Duration : 1h 31mn
Overall bit rate : 1 063 Kbps
Movie name : SBX443_PANIC_BUTTON.Title3.DVDRip
Writing application : Lavf52.78.4
Original source form/Name : SBX443_PANIC_BUTTON

Video
ID : 0
Format : AVC
Format/Info : Advanced Video Codec
Format profile : [email protected]
Format settings, CABAC : Yes
Format settings, ReFrames : 2 frames
Codec ID : H264
Duration : 1h 31mn
Bit rate : 796 Kbps
Width : 720 pixels
Height : 300 pixels
Display aspect ratio : 2.40:1
Frame rate : 25.000 fps
Color space : YUV
Chroma subsampling : 4:2:0
Bit depth : 8 bits
Scan type : Progressive
Bits/(Pixel*Frame) : 0.147
Stream size : 522 MiB (75%)
Writing library : x264 core
Color primaries : BT.601-6 525, BT.1358 525, BT.1700 NTSC, SMPTE 170M
Transfer characteristics : BT.709-5, BT.1361
Matrix coefficients : BT.601-6 525, BT.1358 525, BT.1700 NTSC, SMPTE 170M

Audio
ID : 1
Format : AC-3
Format/Info : Audio Coding 3
Mode extension : CM (complete main)
Codec ID : 2000
Duration : 1h 31mn
Bit rate mode : Constant
Bit rate : 256 Kbps
Channel(s) : 2 channels
Channel positions : Front: L R
Sampling rate : 48.0 KHz
Bit depth : 16 bits
Compression mode : Lossy
Stream size : 168 MiB (24%)
Alignment : Aligned on interleaves
Interleave, duration : 32 ms (0.80 video frame)
Interleave, preload duration : 32 ms