On.The.Inside.2011.DvDRiP.XviD.AC3-VISUALiSE



IMDB :
http://www.imdb.com/title/tt1260365/



Synopsis:
A decent but troubled young man is sent to a psychiatric institution for the criminally insane and soon finds himself in a fight for his life battling ghosts inside his head and very real enemies all around him.
Wupload :
http://www.wupload.com/file/20561342...LiSE.part1.rar
http://www.wupload.com/file/20561342...LiSE.part2.rar

Fileserve :
http://www.fileserve.com/file/j9b7Vf...LiSE.part1.rar
http://www.fileserve.com/file/8tV5s2...LiSE.part2.rar

Filejungle :
http://www.filejungle.com/f/7eEt8d/O...LiSE.part1.rar
http://www.filejungle.com/f/HMRfkk/O...LiSE.part2.rar

Filesonic :
http://www.filesonic.com/file/326828...LiSE.part1.rar
http://www.filesonic.com/file/326826...LiSE.part2.rar

PLEASE REPLY IF YOU LIKE MY POST!

SCREENSHOT :


NFO :
General
Complete name : On.The.Inside.2011.DvDRiP.XviD.AC3-VISUALiSE.avi
Format : AVI
Format/Info : Audio Video Interleave
File size : 1.15 GiB
Duration : 1h 26mn
Overall bit rate : 1 887 Kbps

Video
ID : 0
Format : MPEG-4 Visual
Format profile : Advanced [email protected]
Format settings, BVOP : 2
Format settings, QPel : No
Format settings, GMC : No warppoints
Format settings, Matrix : Default (H.263)
Codec ID : XVID
Codec ID/Hint : XviD
Duration : 1h 26mn
Bit rate : 1 748 Kbps
Width : 720 pixels
Height : 400 pixels
Display aspect ratio : 16:9
Frame rate : 25.000 fps
Color space : YUV
Chroma subsampling : 4:2:0
Bit depth : 8 bits
Scan type : Progressive
Compression mode : Lossy
Bits/(Pixel*Frame) : 0.243
Stream size : 1.06 GiB (93%)
Writing library : XviD 63

Audio
ID : 1
Format : AC-3
Format/Info : Audio Coding 3
Mode extension : CM (complete main)
Codec ID : 2000
Duration : 1h 26mn
Bit rate mode : Constant
Bit rate : 128 Kbps
Channel(s) : 6 channels
Channel positions : Front: L C R, Side: L R, LFE
Sampling rate : 48.0 KHz
Bit depth : 16 bits
Compression mode : Lossy
Stream size : 79.6 MiB (7%)
Alignment : Aligned on interleaves
Interleave, duration : 32 ms (0.80 video frame)