The.Devils.Double.LIMITED.2011.BRRip.XviD.Ac3.Feel-Free



IMDB :
http://www.imdb.com/title/tt1270262/



Synopsis:
A chilling vision of the House of Saddam Hussein comes to life through the eyes of the man who was forced to become the double of Hussein's sadistic son.
Wupload :
http://www.wupload.com/file/20530945...Free.part1.rar
http://www.wupload.com/file/20531014...Free.part2.rar
http://www.wupload.com/file/20531014...Free.part3.rar

Fileserve :
http://www.fileserve.com/file/sufMNh...Free.part1.rar
http://www.fileserve.com/file/ffmnej...Free.part2.rar
http://www.fileserve.com/file/9ZahP3...Free.part3.rar

Filejungle :
http://www.filejungle.com/f/Kaz4cg/T...Free.part1.rar
http://www.filejungle.com/f/f72ztw/T...Free.part2.rar
http://www.filejungle.com/f/sy5xet/T...Free.part3.rar

Filesonic :
http://www.filesonic.com/file/324004...Free.part1.rar
http://www.filesonic.com/file/324005...Free.part2.rar
http://www.filesonic.com/file/324003...Free.part3.rar

PLEASE REPLY IF YOU LIKE MY POST!

SCREENSHOT :


NFO :
General
Complete name : The.Devils.Double.LIMITED.2011.BRRip.XviD.Ac3.Feel-Free.avi
Format : AVI
Format/Info : Audio Video Interleave
File size : 1.46 GiB
Duration : 1h 48mn
Overall bit rate : 1 921 Kbps
Writing application : VirtualDubMod 1.5.10.2 (build 2540/release)
Writing library : VirtualDubMod build 2540/release

Video
ID : 0
Format : MPEG-4 Visual
Format profile : Advanced [email protected]
Format settings, BVOP : 1
Format settings, QPel : No
Format settings, GMC : No warppoints
Format settings, Matrix : Default (H.263)
Codec ID : XVID
Codec ID/Hint : XviD
Duration : 1h 48mn
Bit rate : 1 464 Kbps
Width : 640 pixels
Height : 272 pixels
Display aspect ratio : 2.35:1
Frame rate : 23.976 fps
Color space : YUV
Chroma subsampling : 4:2:0
Bit depth : 8 bits
Scan type : Progressive
Compression mode : Lossy
Bits/(Pixel*Frame) : 0.351
Stream size : 1.11 GiB (76%)
Writing library : XviD 1.2.1 (UTC 2008-12-04)

Audio
ID : 1
Format : AC-3
Format/Info : Audio Coding 3
Mode extension : CM (complete main)
Codec ID : 2000
Duration : 1h 48mn
Bit rate mode : Constant
Bit rate : 448 Kbps
Channel(s) : 6 channels
Channel positions : Front: L C R, Side: L R, LFE
Sampling rate : 48.0 KHz
Bit depth : 16 bits
Compression mode : Lossy
Stream size : 349 MiB (23%)
Alignment : Aligned on interleaves
Interleave, duration : 42 ms (1.00 video frame)
Interleave, preload duration : 512 ms