Conan The Barbarian 2011 BRRip XviD-SIMS

iNFo:
http://www.imdb.com/title/tt0816462/
General
Complete name : Conan.The.Barbarian.2011.BRRip.XviD-SIMS.avi
Format : AVI
Format/Info : Audio Video Interleave
File size : 960 MiB
Duration : 1h 52mn
Overall bit rate : 1 191 Kbps
Writing application : Lavf51.12.1

Video
ID : 0
Format : AVC
Format/Info : Advanced Video Codec
Format profile : [email protected]
Format settings, CABAC : No
Format settings, ReFrames : 1 frame
Format settings, GOP : M=1, N=12
Codec ID : H264
Duration : 1h 52mn
Bit rate : 1 051 Kbps
Width : 640 pixels
Height : 272 pixels
Display aspect ratio : 2.35:1
Frame rate : 23.976 fps
Color space : YUV
Chroma subsampling : 4:2:0
Bit depth : 8 bits
Scan type : Progressive
Bits/(Pixel*Frame) : 0.252
Stream size : 847 MiB (88%)

Audio
ID : 1
Format : MPEG Audio
Format version : Version 1
Format profile : Layer 3
Mode : Joint stereo
Mode extension : MS Stereo
Codec ID : 55
Codec ID/Hint : MP3
Duration : 1h 52mn
Bit rate mode : Constant
Bit rate : 128 Kbps
Channel(s) : 2 channels
Sampling rate : 44.1 KHz
Compression mode : Lossy
Stream size : 103 MiB (11%)
Alignment : Aligned on interleaves
Interleave, duration : 26 ms (0.63 video frame)
Interleave, preload duration : 26 ms


1-LINK:
http://www.filesonic.com/file/323986...D-SIMS.avi.rar
Or
http://www.wupload.com/file/20527887...D-SIMS.avi.rar
Or
http://www.fileserve.com/file/5KYfgh...D-SIMS.avi.rar
Please-Say-Thanks-To-Keep-The-Topic-Alive.