The.Devils.Double.2011.BDRip-HDT



IMDB :
http://www.imdb.com/title/tt1270262/



Synopsis:
A chilling vision of the House of Saddam Hussein comes to life through the eyes of the man who was forced to become the double of Hussein’s sadistic son.
Wupload :
http://www.wupload.com/file/20114796...-HDT.part1.rar
http://www.wupload.com/file/20120134...-HDT.part2.rar

Fileserve :
http://www.fileserve.com/file/7Wy9eP...-HDT.part1.rar
http://www.fileserve.com/file/RQa4zx...-HDT.part2.rar

Filejungle :
http://www.filejungle.com/f/cJxr4N/T...-HDT.part1.rar
http://www.filejungle.com/f/3yB9km/T...-HDT.part2.rar

Filesonic :
http://www.filesonic.com/file/323314...-HDT.part1.rar
http://www.filesonic.com/file/323314...-HDT.part2.rar

PLEASE REPLY IF YOU LIKE MY POST!

SCREENSHOT :


NFO :
General
Complete name : The.Devils.Double.2011.BDRip-HDT.avi
Format : AVI
Format/Info : Audio Video Interleave
Format profile : OpenDML
Format settings : rec
File size : 1.37 GiB
Duration : 1h 48mn
Overall bit rate : 1 797 Kbps
Writing application : AVI-Mux GUI 1.17.8.3, Feb 16 201019:42:50

Video
ID : 0
Format : MPEG-4 Visual
Format profile : Advanced [email protected]
Format settings, BVOP : 2
Format settings, QPel : No
Format settings, GMC : No warppoints
Format settings, Matrix : Default (MPEG)
Muxing mode : Packed bitstream
Codec ID : XVID
Codec ID/Hint : XviD
Duration : 1h 48mn
Bit rate : 1 408 Kbps
Width : 720 pixels
Height : 304 pixels
Display aspect ratio : 2.35:1
Frame rate : 23.976 fps
Color space : YUV
Chroma subsampling : 4:2:0
Bit depth : 8 bits
Scan type : Progressive
Compression mode : Lossy
Bits/(Pixel*Frame) : 0.268
Stream size : 1.07 GiB (78%)
Writing library : XviD 1.2.1 (UTC 2008-12-04)

Audio
ID : 1
Format : AC-3
Format/Info : Audio Coding 3
Mode extension : CM (complete main)
Codec ID : 2000
Duration : 1h 48mn
Bit rate mode : Constant
Bit rate : 384 Kbps
Channel(s) : 6 channels
Channel positions : Front: L C R, Side: L R, LFE
Sampling rate : 48.0 KHz
Bit depth : 16 bits
Compression mode : Lossy
Stream size : 299 MiB (21%)
Alignment : Aligned on interleaves
Interleave, duration : 64 ms (1.53 video frames)
Interleave, preload duration : 192 ms
Title : en