INFO:

Barbie.A.Perfect.Christmas.2011.DVDRip.XVID.AC3.HQ.Hive-CM8

Thx Hive

CM8 Doing It Right The First Time

THIS IS ONE FOR SIMMO

Source: DVD-R

Encode:

love doing movies for kids, here is the newest barbie movie.
did the usual sharpness,rgb,denoise
got very nice
enjoy

Video: 720x400 @bitrate 1700 2pass
Audio: English AC3 5.1 @448
Sample: yes included
Bonus: yes 2 mins outtakes in additional file

http://www.imdb.com/title/tt2091240/

General
Complete name : Barbie.A.Perfect.Christmas.2011.DVDRip.XVID.AC3.HQ.Hive-CM8.avi
Format : AVI
Format/Info : Audio Video Interleave
File size : 1.11 GiB
Duration : 1h 13mn
Overall bit rate : 2 156 Kbps
Writing application : Nandub v1.0rc2
Writing library : Nandub build 1853/release

Video
ID : 0
Format : MPEG-4 Visual
Format profile : Advanced [email protected]
Format settings, BVOP : 2
Format settings, QPel : Yes
Format settings, GMC : No warppoints
Format settings, Matrix : Default (H.263)
Muxing mode : Packed bitstream
Codec ID : XVID
Codec ID/Hint : XviD
Duration : 1h 13mn
Bit rate : 1 698 Kbps
Width : 720 pixels
Height : 400 pixels
Display aspect ratio : 16:9
Frame rate : 23.976 fps
Color space : YUV
Chroma subsampling : 4:2:0
Bit depth : 8 bits
Scan type : Progressive
Compression mode : Lossy
Bits/(Pixel*Frame) : 0.246
Stream size : 897 MiB (79%)
Writing library : XviD 1.2.1 (UTC 2008-12-04)

Audio
ID : 1
Format : AC-3
Format/Info : Audio Coding 3
Mode extension : CM (complete main)
Codec ID : 2000
Duration : 1h 13mn
Bit rate mode : Constant
Bit rate : 448 Kbps
Channel(s) : 6 channels
Channel positions : Front: L C R, Side: L R, LFE
Sampling rate : 48.0 KHz
Bit depth : 16 bits
Compression mode : Lossy
Delay relative to video : 50ms
Stream size : 237 MiB (21%)
Alignment : Split accross interleaves
Interleave, duration : 42 ms (1.00 video frame)
Interleave, preload duration : 500 ms

Plot:

Join Barbie and her sisters Skipper, Stacie and Chelsea as their holiday vacation plans turn
into a most unexpected adventure and heartwarming lesson. After a snowstorm diverts their plane,
the girls find themselves far from their New York destination and their holiday dreams.

Cast:

Diana Kaarina ... Barbie (voice)
Jennifer Waris ... Barbie (singing voice)
Rachel Harrison ... Skipper (voice)
Nevada Brandt ... Skipper (singing voice)
Lauren Lavoie ... Stacie (voice)
Danielle Bessler ... Stacie (singing voice).
Ashlyn Drummond ... Chelsea (voice)
Lucia Vecchio ... Chelsea (singing voice)


SCREENSHOTS:




[b]Single Link[b]

http://www.fileserve.com/file/pSkCDQ...Q.Hive-CM8.avi
Or
http://www.filesonic.com/file/319801...Q.Hive-CM8.avi


Download from wupload.com

http://www.wupload.com/file/20056283....avi.part1.rar
http://www.wupload.com/file/20056283....avi.part2.rar
http://www.wupload.com/file/20056282....avi.part3.rar


Download from fileserve.com
http://www.fileserve.com/file/dpkYmR....avi.part1.rar
http://www.fileserve.com/file/VmTRKn....avi.part2.rar
http://www.fileserve.com/file/DwsQ83....avi.part3.rar

Download from filesonic.com
http://www.filesonic.com/file/320176....avi.part1.rar
http://www.filesonic.com/file/320173....avi.part2.rar
http://www.filesonic.com/file/320158....avi.part3.rar

Download from filejungle.com
http://www.filejungle.com/f/n384Mw/B....avi.part1.rar
http://www.filejungle.com/f/TYNMvX/B....avi.part2.rar
http://www.filejungle.com/f/SR5MD9/B....avi.part3.rar