INFO:

Complete name : Attack The Block [2011] Dvdrip - PRESTiGE.avi
Format : AVI
Format/Info : Audio Video Interleave
File size : 701 MiB
Duration : 1h 24mn
Overall bit rate : 1 158 Kbps
IMDB: Attack.The.Block.PROPER.PAL.DVDR-iGNiTiON
Encoder:Twisted
Source: http://www.imdb.com/title/tt1478964/

VIDEO

ID : 0
Format : MPEG-4 Visual
Format profile : Advanced [email protected]
Format settings, BVOP : 2
Format settings, QPel : No
Format settings, GMC : No warppoints
Format settings, Matrix : Default (H.263)
Muxing mode : Packed bitstream
Codec ID : XVID
Codec ID/Hint : XviD
Duration : 1h 24mn
Bit rate : 1 021 Kbps
Width : 720 pixels
Height : 288 pixels
Display aspect ratio : 2.500
Frame rate : 25.000 fps
Color space : YUV
Chroma subsampling : 4:2:0
Bit depth : 8 bits
Scan type : Progressive
Compression mode : Lossy
Bits/(Pixel*Frame) : 0.197
Stream size : 617 MiB (88%)
Writing library : XviD 63

AUDIO


ID : 1
Format : MPEG Audio
Format version : Version 1
Format profile : Layer 3
Mode : Joint stereo
Codec ID : 55
Codec ID/Hint : MP3
Duration : 1h 24mn
Bit rate mode : Constant
Bit rate : 128 Kbps
Channel(s) : 2 channels
Sampling rate : 44.1 KHz
Compression mode : Lossy
Delay relative to video : 26ms
Stream size : 77.4 MiB (11%)
Alignment : Split accross interleaves
Interleave, duration : 40 ms (1.00 video frame)
Interleave, preload duration : 500 ms

Additional Info: A teen gang in South London defend their block from an alien invasion.


SCREENSHOTS:


[b]Single Link[b]

http://www.fileserve.com/file/ZXsVJT...-_PRESTiGE.avi
Or
http://www.filesonic.com/file/319799...-_PRESTiGE.avi


Download from wupload.com

http://www.wupload.com/file/2005596652/AtTBLK - PRESTiGE.part1.rar
http://www.wupload.com/file/2005628057/AtTBLK - PRESTiGE.part2.rar
http://www.wupload.com/file/2005613517/AtTBLK - PRESTiGE.part3.rar
http://www.wupload.com/file/2005596692/AtTBLK - PRESTiGE.part4.rar


Download from fileserve.com
http://www.fileserve.com/file/Fv5EXd...TiGE.part1.rar
http://www.fileserve.com/file/AwDsSs...TiGE.part2.rar
http://www.fileserve.com/file/Re7HVM...TiGE.part3.rar
http://www.fileserve.com/file/k2qmRc...TiGE.part4.rar

Download from filesonic.com
http://www.filesonic.com/file/320092...TiGE.part1.rar
http://www.filesonic.com/file/320143...TiGE.part2.rar
http://www.filesonic.com/file/320108...TiGE.part3.rar
http://www.filesonic.com/file/319931...TiGE.part4.rar

Download from filejungle.com
http://www.filejungle.com/f/aSB4uE/A...TiGE.part1.rar
http://www.filejungle.com/f/fyddDQ/A...TiGE.part2.rar
http://www.filejungle.com/f/MhNZWz/A...TiGE.part3.rar
http://www.filejungle.com/f/jq3qtT/A...TiGE.part4.rar