An.Invisible.Sign.2010.BRRip.XviD.AC3.CrEwSaDe



IMDB :
http://www.imdb.com/title/tt1212454/



Synopsis:
Mona Gray is a 20-year-old loner who, as a child, turned to math for salvation after her father became ill. As an adult, Mona now teaches the subject and must help her students through their own crises.
Wupload :
http://www.wupload.com/file/20048322...3.CrEwSaDe.avi

Fileserve :
http://www.fileserve.com/file/KXvSHt...3.CrEwSaDe.avi

Filejungle :
http://www.filejungle.com/f/R2hBbN/A...3.CrEwSaDe.avi

Filesonic :
http://www.filesonic.com/file/319788...3.CrEwSaDe.avi

PLEASE REPLY IF YOU LIKE MY POST!

SCREENSHOT :


NFO :
General
Complete name : An.Invisible.Sign.2010.BRRip.XviD.AC3.CrEwSaDe.avi
Format : AVI
Format/Info : Audio Video Interleave
File size : 699 MiB
Duration : 1h 36mn
Overall bit rate : 1 016 Kbps

Video
ID : 0
Format : MPEG-4 Visual
Format profile : Advanced [email protected]
Format settings, BVOP : 2
Format settings, QPel : No
Format settings, GMC : No warppoints
Format settings, Matrix : Default (H.263)
Codec ID : XVID
Codec ID/Hint : XviD
Duration : 1h 36mn
Bit rate : 881 Kbps
Width : 720 pixels
Height : 304 pixels
Display aspect ratio : 2.35:1
Frame rate : 23.976 fps
Color space : YUV
Chroma subsampling : 4:2:0
Bit depth : 8 bits
Scan type : Progressive
Compression mode : Lossy
Bits/(Pixel*Frame) : 0.168
Stream size : 605 MiB (87%)
Writing library : XviD 1.2.1 (UTC 2008-12-04)

Audio
ID : 1
Format : AC-3
Format/Info : Audio Coding 3
Mode extension : CM (complete main)
Codec ID : 2000
Duration : 1h 36mn
Bit rate mode : Constant
Bit rate : 128 Kbps
Channel(s) : 6 channels
Channel positions : Front: L C R, Side: L R, LFE
Sampling rate : 48.0 KHz
Bit depth : 16 bits
Compression mode : Lossy
Stream size : 88.0 MiB (13%)
Alignment : Aligned on interleaves
Interleave, duration : 64 ms (1.53 video frames)
Interleave, preload duration : 192 ms
Title : an.invisible.sign.2010.720p.bluray.x264-psychd - [2] English