The.Duel.2010.720p.BRRip.x264.RmD



IMDB :
http://www.imdb.com/title/tt1282041/



Synopsis:
THE DUEL gives life to a classic Chekhovian tale: the young ne’er-do-well aristocrat vs. the arrogant man of science; the attraction of a manipulative, narcissistic mistress vs. the life of the mind and of principled action. Gambling, alcohol and flirtations consummated in an impossibly beautiful countryside hold obvious attractions for Laevsky.
Wupload :
http://www.wupload.com/file/20035318....RmD.part1.rar
http://www.wupload.com/file/20035319....RmD.part2.rar
http://www.wupload.com/file/20037340....RmD.part3.rar

Fileserve :
http://www.fileserve.com/file/fZhs98....RmD.part1.rar
http://www.fileserve.com/file/AF4V4Z....RmD.part2.rar
http://www.fileserve.com/file/etu2Xy....RmD.part3.rar

Filejungle :
http://www.filejungle.com/f/73bfWD/T....RmD.part1.rar
http://www.filejungle.com/f/Z9gkgv/T....RmD.part2.rar
http://www.filejungle.com/f/2eewPX/T....RmD.part3.rar

Filesonic :
http://www.filesonic.com/file/319343....RmD.part1.rar
http://www.filesonic.com/file/319343....RmD.part2.rar
http://www.filesonic.com/file/319254....RmD.part3.rar

PLEASE REPLY IF YOU LIKE MY POST!

SCREENSHOT :


NFO :
Complete name : The.Duel.2010.720p.BRRip.x264.RmD.mkv
Format : Matroska
File size : 1.71 GiB
Duration : 1h 34mn
Overall bit rate : 2 601 Kbps

Video
Format : AVC
Duration : 1h 34mn
Bit rate : 2 216 Kbps
Width : 1 280 pixels
Height : 720 pixels
Display aspect ratio : 16:9
Frame rate : 23.976 fps
Stream size : 1.43 GiB (83%)

Audio
Format : AC-3
Duration : 1h 34mn
Bit rate : 384 Kbps
Channel(s) : 6 channels
Stream size : 259 MiB (15%)