Crazy.Stupid.Love.2011.DVDRIP.XViD-Vrxuniique



IMDB :
http://www.imdb.com/title/tt1570728/



Synopsis:
Cal (Steve Carell) and Emily (Julianne Moore) have the perfect life together living the American dream until Emily asks for a divorce. Now Cal, Mr Husband, has to navigate the single scene with a little help from his professional bachelor friend Jacob Palmer (Ryan Gosling). Make that a lot of help.
Wupload :
http://www.wupload.com/file/20005654...ique.part1.rar
http://www.wupload.com/file/20005673...ique.part2.rar

Fileserve :
http://www.fileserve.com/file/gRSTyq...ique.part1.rar
http://www.fileserve.com/file/K5TyKz...ique.part2.rar

Filejungle :
http://www.filejungle.com/f/sDSUks/C...ique.part1.rar
http://www.filejungle.com/f/bb3S9B/C...ique.part2.rar

Filesonic :
http://www.filesonic.com/file/318477...ique.part1.rar
http://www.filesonic.com/file/318476...ique.part2.rar

PLEASE REPLY IF YOU LIKE MY POST!

SCREENSHOT :


NFO :
General
Complete name : Crazy.Stupid.Love_2011-DVDRIP.XViD-Vrxuniique.avi
Format : AVI
Format/Info : Audio Video Interleave
File size : 1.40 GiB
Duration : 2h 10mn
Overall bit rate : 1 532 Kbps

Video
ID : 0
Format : MPEG-4 Visual
Format profile : Advanced [email protected]
Format settings, BVOP : 2
Format settings, QPel : Yes
Format settings, GMC : No warppoints
Format settings, Matrix : Default (H.263)
Codec ID : XVID
Codec ID/Hint : XviD
Duration : 2h 10mn
Bit rate : 1 119 Kbps
Width : 720 pixels
Height : 304 pixels
Display aspect ratio : 2.35:1
Frame rate : 23.976 fps
Color space : YUV
Chroma subsampling : 4:2:0
Bit depth : 8 bits
Scan type : Progressive
Compression mode : Lossy
Bits/(Pixel*Frame) : 0.213
Stream size : 1.02 GiB (73%)
Writing library : XviD 1.2.1 (UTC 2008-12-04)

Audio
ID : 1
Format : AC-3
Format/Info : Audio Coding 3
Mode extension : CM (complete main)
Codec ID : 2000
Duration : 1h 58mn
Bit rate mode : Constant
Bit rate : 448 Kbps
Channel(s) : 6 channels
Channel positions : Front: L C R, Side: L R, LFE
Sampling rate : 48.0 KHz
Bit depth : 16 bits
Compression mode : Lossy
Stream size : 379 MiB (26%)
Alignment : Aligned on interleaves
Interleave, duration : 71 ms (1.70 video frames)
Interleave, preload duration : 192 ms
Title : VTS_01_1 T80 3_2ch 384Kbps DELAY 0ms_new