In.Search.Of.The.Miraculous.2010.DVDRiP.XviD-SCARED



IMDB :
http://insearchofthemiraculous.se/buy-now/



Synopsis:
It has been five years since Pontus Alv’s film the Strongest of the Strange came out. Even before the premiere Pontus had already started filming his next project, which you are about to get a small glimpse of. Hard work behind and in front of the camera, the unconditional love for skateboarding, his scene and the DIY culture is slowly forming into yet another masterpiece signed Pontus Alv.
Wupload :
http://www.wupload.com/file/20004489...ulous-xvid.rar

Fileserve :
http://www.fileserve.com/file/2ztbef...ulous-xvid.rar

Filejungle :
http://www.filejungle.com/f/dTay38/s...ulous-xvid.rar

Filesonic :
http://www.filesonic.com/file/318385...ulous-xvid.rar

PLEASE REPLY IF YOU LIKE MY POST!

SCREENSHOT :


NFO :
General
Complete name : scrd-miraculous-xvid.avi
Format : AVI
Format/Info : Audio Video Interleave
File size : 699 MiB
Duration : 1h 0mn
Overall bit rate mode : Variable
Overall bit rate : 1 604 Kbps
Writing application : VirtualDubMod 1.5.10.2 (build 2540/release)
Writing library : VirtualDubMod build 2540/release

Video
ID : 0
Format : MPEG-4 Visual
Format profile : Advanced [email protected]
Format settings, BVOP : 2
Format settings, QPel : No
Format settings, GMC : No warppoints
Format settings, Matrix : Default (MPEG)
Codec ID : XVID
Codec ID/Hint : XviD
Duration : 1h 0mn
Bit rate : 1 383 Kbps
Width : 608 pixels
Height : 448 pixels
Display aspect ratio : 4:3
Frame rate : 25.000 fps
Color space : YUV
Chroma subsampling : 4:2:0
Bit depth : 8 bits
Scan type : Progressive
Compression mode : Lossy
Bits/(Pixel*Frame) : 0.203
Stream size : 602 MiB (86%)
Writing library : XviD 1.2.1 (UTC 2008-12-04)

Audio
ID : 1
Format : MPEG Audio
Format version : Version 1
Format profile : Layer 3
Mode : Joint stereo
Mode extension : MS Stereo
Codec ID : 55
Codec ID/Hint : MP3
Duration : 1h 0mn
Bit rate mode : Variable
Bit rate : 149 Kbps
Nominal bit rate : 160 Kbps
Channel(s) : 2 channels
Sampling rate : 48.0 KHz
Compression mode : Lossy
Stream size : 64.8 MiB (9%)
Alignment : Aligned on interleaves
Writing library : LAME3.98r
Encoding settings : -m j -V 4 -q 3 -lowpass 17.5 --abr 160