A.Little.Help.2010.DVDRIP.Xvid-Team4



IMDB :
http://www.imdb.com/title/tt1319722/



Synopsis:
It’s a movie for everyone whose life has been thrown off-course, out of whack, or simply not turned out the way they planned it. In other words, it’s a movie for everyone, period. Set in suburban Long Island in the summer of 2002, with the psychic wounds of 9/11 still fresh, A Little Help is a story that takes a comic, searching and profoundly empathetic look at a few pivotal months in the life of dental hygienist Laura Pehlke (Jenna Fischer)-an ordinary woman whose life suddenly flies off the rails-and her heroic efforts to re-establish a sense of security and normalcy for herself and her son.
Wupload :
http://www.wupload.com/file/20000267...Xvid-Team4.rar

Fileserve :
http://www.fileserve.com/file/wD7m2A...Xvid-Team4.rar

Filejungle :
http://www.filejungle.com/f/gHABqN/A...Xvid-Team4.rar

Filesonic :
http://www.filesonic.com/file/318333...Xvid-Team4.rar

PLEASE REPLY IF YOU LIKE MY POST!

SCREENSHOT :


NFO :
General
Complete name : A.Little.Help.2010.DVDRIP.Xvid-Team4.avi
Format : AVI
Format/Info : Audio Video Interleave
Format profile : OpenDML
Format settings : rec
File size : 787 MiB
Duration : 1h 49mn
Overall bit rate : 1 009 Kbps
Writing application : AVI-Mux GUI 1.17.8, Aug 30 2008 12:36:58

Video
ID : 0
Format : MPEG-4 Visual
Format profile : Advanced [email protected]
Format settings, BVOP : 2
Format settings, QPel : No
Format settings, GMC : No warppoints
Format settings, Matrix : Default (H.263)
Codec ID : XVID
Codec ID/Hint : XviD
Duration : 1h 49mn
Bit rate : 872 Kbps
Width : 640 pixels
Height : 352 pixels
Display aspect ratio : 16:9
Frame rate : 23.976 fps
Color space : YUV
Chroma subsampling : 4:2:0
Bit depth : 8 bits
Scan type : Progressive
Compression mode : Lossy
Bits/(Pixel*Frame) : 0.161
Stream size : 680 MiB (86%)
Writing library : XviD 1.2.1 (UTC 2008-12-04)

Audio
ID : 1
Format : MPEG Audio
Format version : Version 1
Format profile : Layer 3
Mode : Joint stereo
Mode extension : MS Stereo
Codec ID : 55
Codec ID/Hint : MP3
Duration : 1h 49mn
Bit rate mode : Constant
Bit rate : 128 Kbps
Channel(s) : 2 channels
Sampling rate : 48.0 KHz
Compression mode : Lossy
Stream size : 99.8 MiB (13%)
Alignment : Aligned on interleaves
Interleave, duration : 24 ms (0.58 video frame)
Interleave, preload duration : 504 ms
Title : VTS_01_1 T80 3_2ch 320Kbps DELAY 0ms
Writing library : LAME3.98r
Encoding settings : -m j -V 4 -q 2 -lowpass 17 -b 128-m j -V 4 -q 2 -lowpass 17 -b 128-m j -V 4 -q 2 -lowpass 17 -b 128