INFO:

Title: Beethoven's Christmas Adventure 2011 DvDRiP XviD - VISUALiSE
Format: Xvid
Language: English
Subtitles: No
Imdb: http://www.imdb.com/title/tt1855134/

Plot:
A Christmas elf accidentally takes off in Santa's sleigh,
crash lands in a small town, and loses the magic toy bag.
Beethoven must rescue the elf, recover the bag from greedy
crooks, and return the sleigh to Santa in time to save
Christmas

Sources:
Video: Retail DVDR - Many Thanks German Pal
Audio: Retail DVDR - Many Thanks German Pal

Release Notes:
Beethoven's Christmas Adventure 2011 DvDRiP XviD - VISUALiSE
Straight forward rip from the dvdr ran
a few filters etc etc

enjoy.

Info:
Video
ID : 0
Format : MPEG-4 Visual
Codec ID : XVID
Codec ID/Hint : XviD
Duration : 1h 25mn
Bit rate : 90.0 Kbps
Width : 720 pixels
Height : 402 pixels
Display aspect ratio : 16:9
Frame rate : 29.970 fps
Color space : YUV
Chroma subsampling : 4:2:0
Compression mode : Lossy
Bits/(Pixel*Frame) : 0.010
Stream size : 55.3 MiB (5%)

Audio
ID : 1
Format : MPEG Audio
Codec ID : 55
Codec ID/Hint : MP3
Duration : 1h 25mn
Bit rate : 128 Kbps
Channel(s) : 2 channels
Sampling rate : 48.0 KHz
Compression mode : Lossy
Stream size : 78.6 MiB (7%)
Alignment : Aligned on interleaves


SCREENSHOTS:




Download from wupload.com

http://www.wupload.com/file/19812353...crst.part1.rar
http://www.wupload.com/file/19812353...crst.part2.rar
http://www.wupload.com/file/19812354...crst.part3.rar
http://www.wupload.com/file/19812356...crst.part4.rar
http://www.wupload.com/file/19813214...crst.part5.rar
http://www.wupload.com/file/19813214...crst.part6.rar


Download from filejungle.com
http://www.filejungle.com/f/2Fu5CG/bthcrst.part1.rar
http://www.filejungle.com/f/N73K3n/bthcrst.part2.rar
http://www.filejungle.com/f/53VQwA/bthcrst.part3.rar
http://www.filejungle.com/f/9h9TEU/bthcrst.part4.rar
http://www.filejungle.com/f/FMvKaS/bthcrst.part5.rar
http://www.filejungle.com/f/fhryxZ/bthcrst.part6.rar

Download from fileserve.com
http://www.fileserve.com/file/MRWwBgV/bthcrst.part1.rar
http://www.fileserve.com/file/6w8cu4B/bthcrst.part2.rar
http://www.fileserve.com/file/GNSu2Qj/bthcrst.part3.rar
http://www.fileserve.com/file/M5ZHPTc/bthcrst.part4.rar
http://www.fileserve.com/file/PbBpzQ9/bthcrst.part5.rar
http://www.fileserve.com/file/8nc7zAy/bthcrst.part6.rar

Download from filesonic.com
http://www.filesonic.com/file/315733...crst.part1.rar
http://www.filesonic.com/file/315733...crst.part2.rar
http://www.filesonic.com/file/315733...crst.part3.rar
http://www.filesonic.com/file/315733...crst.part4.rar
http://www.filesonic.com/file/315733...crst.part5.rar
http://www.filesonic.com/file/315733...crst.part6.rar