Rise.of.the.Planet.of.the.Apes.2011.BRRip.XviD.Ac3.Feel-Free



IMDB :
http://www.imdb.com/title/tt1318514/



Synopsis:
An origin story set in present day San Francisco, where man’s own experiments with genetic engineering lead to the development of intelligence in apes and the onset of a war for supremacy.
Wupload :
http://www.wupload.com/file/19932238...Free.part1.rar
http://www.wupload.com/file/19932421...Free.part2.rar

Fileserve :
http://www.fileserve.com/file/beYgay...Free.part1.rar
http://www.fileserve.com/file/Gc5syQ...Free.part2.rar

Filejungle :
http://www.filejungle.com/f/2tFhYu/R...Free.part1.rar
http://www.filejungle.com/f/NVTtxf/R...Free.part2.rar

Filesonic :
http://www.filesonic.com/file/316773...Free.part1.rar
http://www.filesonic.com/file/316773...Free.part2.rar

PLEASE REPLY IF YOU LIKE MY POST!

SCREENSHOT :


NFO :
Genre:Action | Drama | Sci-Fi
Language:English
IMDb:http://www.imdb.com/title/tt1318514/
Source:BluRay.1080p.DTS.x264.-CHD Thanks!
Subtitles:Romana

Format : AVI
Format/Info : Audio Video Interleave
File size : 1.40 GiB
Duration : 1h 44mn
Overall bit rate : 1 904 Kbps


Video
ID : 0
Format : MPEG-4 Visual
Format profile : Advanced [email protected]
Format settings, BVOP : Yes
Format settings, QPel : No
Format settings, GMC : No warppoints
Format settings, Matrix : Default (H.263)
Codec ID : XVID
Codec ID/Hint : XviD
Duration : 1h 44mn
Bit rate : 1 447 Kbps
Width : 640 pixels
Height : 272 pixels
Display aspect ratio : 2.35:1
Frame rate : 23.976 fps
Color space : YUV
Chroma subsampling : 4:2:0
Bit depth : 8 bits
Scan type : Progressive
Bits/(Pixel*Frame) : 0.347
Stream size : 1.06 GiB (76%)
Writing library : XviD 1.2.1 (UTC 2008-12-04)

Audio
ID : 1
Format : AC-3
Format/Info : Audio Coding 3
Mode extension : CM (complete main)
Codec ID : 2000
Duration : 1h 44mn
Bit rate mode : Constant
Bit rate : 448 Kbps
Channel(s) : 6 channels
Channel positions : Front: L C R, Side: L R, LFE
Sampling rate : 48.0 KHz
Bit depth : 16 bits
Stream size : 336 MiB (24%)
Alignment : Aligned on interleaves
Interleave, duration : 42 ms (1.00 video frame)
Interleave, preload duration : 512 ms