INFO:

Title: Alyce 2012 DvDRiP XviD - VISUALiSE
Format: Xvid
Language: English
Subtitles: No
Imdb: http://www.imdb.com/title/tt1680051/

Plot:
Sources:
Video: Retail DVDR - Many Thanks
Audio: Retail DVDR - Many Thanks

Release Notes:
Alyce 2012 DvDRiP XviD - VISUALiSE
Straight forward rip from the dvdr ran
a few filters etc etc
enjoy.

Info:
Video

ID : 0
Format : MPEG-4 Visual
Format profile : Advanced [email protected]
Format settings, BVOP : 2
Format settings, QPel : No
Format settings, GMC : No warppoints
Format settings, Matrix : Default (MPEG)
Codec ID : XVID
Codec ID/Hint : XviD
Duration : 1h 29mn
Bit rate : 864 Kbps
Width : 714 pixels
Height : 400 pixels
Display aspect ratio : 16:9
Frame rate : 29.970 fps
Color space : YUV
Chroma subsampling : 4:2:0
Bit depth : 8 bits
Scan type : Progressive
Compression mode : Lossy
Bits/(Pixel*Frame) : 0.101
Stream size : 556 MiB (86%)

Audio
ID : 1
Format : MPEG Audio
Format version : Version 1
Format profile : Layer 3
Codec ID : 55
Codec ID/Hint : MP3
Duration : 1h 29mn
Bit rate mode : Constant
Bit rate : 128 Kbps
Channel(s) : 2 channels
Sampling rate : 48.0 KHz
Compression mode : Lossy
Delay relative to video : 33ms
Stream size : 82.3 MiB (13%)
Alignment : Aligned on interleaves
Interleave, duration : 24 ms (0.72 video frame)
Interleave, preload duration : 504 ms


SCREENSHOTS:



Download from wupload.com

http://www.wupload.com/file/1981217102/Ayc.part1.rar
http://www.wupload.com/file/1981235357/Ayc.part2.rar
http://www.wupload.com/file/1981235442/Ayc.part3.rar
http://www.wupload.com/file/1981217097/Ayc.part4.rar


Download from filejungle.com
http://www.filejungle.com/f/SdZVYR/Ayc.part1.rar
http://www.filejungle.com/f/nGKDbE/Ayc.part2.rar
http://www.filejungle.com/f/dTHDSW/Ayc.part3.rar
http://www.filejungle.com/f/ByRf26/Ayc.part4.rar

Download from fileserve.com
http://www.fileserve.com/file/NANxwpr/Ayc.part1.rar
http://www.fileserve.com/file/DzSAKZ9/Ayc.part2.rar
http://www.fileserve.com/file/c6SSEZX/Ayc.part3.rar
http://www.fileserve.com/file/KqHUbt7/Ayc.part4.rar

Download from filesonic.com
http://www.filesonic.com/file/3157339224/Ayc.part1.rar
http://www.filesonic.com/file/3157339494/Ayc.part2.rar
http://www.filesonic.com/file/3157339454/Ayc.part3.rar
http://www.filesonic.com/file/3157327854/Ayc.part4.rar