Beethovens.Christmas.Adventure.2011.DVDRip.XVID.AC3.HQ.Hive-CM8



IMDB :
http://www.imdb.com/title/tt1855134/



Synopsis:
A Christmas elf accidentally takes off in Santa’s sleigh, crash lands in a small town, and loses the magic toy bag. Beethoven must rescue the elf, recover the bag from greedy crooks, and return the sleigh to Santa in time to save Christmas.
Wupload :
http://www.wupload.com/file/19910810...-CM8.part1.rar
http://www.wupload.com/file/19910876...-CM8.part2.rar

Fileserve :
http://www.fileserve.com/file/N3cSxT...-CM8.part1.rar
http://www.fileserve.com/file/RATg5B...-CM8.part2.rar

Filejungle :
http://www.filejungle.com/f/kASNyA/B...-CM8.part1.rar
http://www.filejungle.com/f/5tqTNe/B...-CM8.part2.rar

Filesonic :
http://www.filesonic.com/file/316608...-CM8.part1.rar
http://www.filesonic.com/file/316614...-CM8.part2.rar

PLEASE REPLY IF YOU LIKE MY POST!

SCREENSHOT :


NFO :
General
Complete name : Beethovens.Christmas.Adventure.2011.DVDRip.XVID.AC3.HQ.Hive-CM8.avi
Format : AVI
Format/Info : Audio Video Interleave
File size : 1.35 GiB
Duration : 1h 29mn
Overall bit rate : 2 151 Kbps
Writing application : Nandub v1.0rc2
Writing library : Nandub build 1853/release

Video
ID : 0
Format : MPEG-4 Visual
Format profile : Advanced [email protected]
Format settings, BVOP : 2
Format settings, QPel : Yes
Format settings, GMC : No warppoints
Format settings, Matrix : Default (H.263)
Muxing mode : Packed bitstream
Codec ID : XVID
Codec ID/Hint : XviD
Duration : 1h 29mn
Bit rate : 1 694 Kbps
Width : 720 pixels
Height : 400 pixels
Display aspect ratio : 16:9
Frame rate : 23.976 fps
Color space : YUV
Chroma subsampling : 4:2:0
Bit depth : 8 bits
Scan type : Progressive
Compression mode : Lossy
Bits/(Pixel*Frame) : 0.245
Stream size : 1.06 GiB (79%)
Writing library : XviD 1.2.1 (UTC 2008-12-04)

Audio
ID : 1
Format : AC-3
Format/Info : Audio Coding 3
Mode extension : CM (complete main)
Codec ID : 2000
Duration : 1h 29mn
Bit rate mode : Constant
Bit rate : 448 Kbps
Channel(s) : 6 channels
Channel positions : Front: L C R, Side: L R, LFE
Sampling rate : 48.0 KHz
Bit depth : 16 bits
Compression mode : Lossy
Stream size : 287 MiB (21%)
Alignment : Split accross interleaves
Interleave, duration : 42 ms (1.00 video frame)
Interleave, preload duration : 500 ms