Swamp.Shark.2011.BRRIP.X264.AC3.CrEwSaDe



IMDB :
http://www.imdb.com/title/tt1684927/



Synopsis:
Open on gorgeous swamplands of the Atchafalaya Basin in the summer. Lots of beautiful teens are at the beach the weekend before Gator Fest. That night an animal smuggling deal goes wrong and a large sea creature escapes into a swampy backwoods river. At the McDaniel’s “Gator Shack” restaurant, a local, Jackson is drunk, and gets mangled to bits. The town sheriff blames the carnage on the McDaniel’s “escaped” pack of gators and tries hauling them off to jail. Rachel McDaniel, head of the family, claims to have seen the fin of a shark! Rachel and her family, along with the help of a mysterious stranger, Charlie, take on the Swampshark and the law to clear their names, save Rachel’s kid sister Krystal and prevent the unwitting folks at the upcoming Gator Fest from being torn to shreds by a beast the likes of which no one has ever seen.
Wupload :
http://www.wupload.com/file/19911514...3.CrEwSaDe.rar

Fileserve :
http://www.fileserve.com/file/qQyGnw...3.CrEwSaDe.rar

Filejungle :
http://www.filejungle.com/f/TYj73Y/S...3.CrEwSaDe.rar

Filesonic :
http://www.filesonic.com/file/316633...3.CrEwSaDe.rar

PLEASE REPLY IF YOU LIKE MY POST!

SCREENSHOT :


NFO :
General
Unique ID : 246107817778578080486793658843287323571 (0xB926A43EA2ED219F89DC642B7ED503B3)
Complete name : Swamp.Shark.2011.BRRIP.X264.AC3.CrEwSaDe.mkv
Format : Matroska
File size : 698 MiB
Duration : 1h 28mn
Overall bit rate : 1 098 Kbps
Encoded date : UTC 2011-11-06 06:21:06
Writing application : mkvmerge v5.0.1 ('Es ist Sommer') built on Oct 9 2011 11:55:43
Writing library : libebml v1.2.2 + libmatroska v1.3.0

Video
ID : 1
Format : AVC
Format/Info : Advanced Video Codec
Format profile : [email protected]
Format settings, CABAC : Yes
Format settings, ReFrames : 5 frames
Codec ID : V_MPEG4/ISO/AVC
Duration : 1h 28mn
Bit rate : 905 Kbps
Width : 734 pixels
Height : 416 pixels
Display aspect ratio : 16:9
Frame rate : 23.976 fps
Color space : YUV
Chroma subsampling : 4:2:0
Bit depth : 8 bits
Scan type : Progressive
Bits/(Pixel*Frame) : 0.124
Stream size : 562 MiB (81%)
Writing library : x264 core 119 r2106 07efeb4
Encoding settings : cabac=1 / ref=5 / deblock=1:-1:-1 / analyse=0x3:0x133 / me=umh / subme=6 / psy=1 / psy_rd=1.00:0.00 / mixed_ref=1 / me_range=16 / chroma_me=1 / trellis=2 / 8x8dct=1 / cqm=0 / deadzone=21,11 / fast_pskip=1 / chroma_qp_offset=-2 / threads=12 / sliced_threads=0 / nr=0 / decimate=1 / interlaced=0 / bluray_compat=0 / constrained_intra=0 / bframes=3 / b_pyramid=2 / b_adapt=2 / b_bias=0 / direct=3 / weightb=1 / open_gop=0 / weightp=2 / keyint=250 / keyint_min=23 / scenecut=40 / intra_refresh=0 / rc_lookahead=40 / rc=2pass / mbtree=1 / bitrate=905 / ratetol=1.0 / qcomp=0.60 / qpmin=10 / qpmax=51 / qpstep=4 / cplxblur=20.0 / qblur=0.5 / ip_ratio=1.40 / aq=1:1.00

Audio
ID : 2
Format : AC-3
Format/Info : Audio Coding 3
Mode extension : CM (complete main)
Codec ID : A_AC3
Duration : 1h 28mn
Bit rate mode : Constant
Bit rate : 192 Kbps
Channel(s) : 6 channels
Channel positions : Front: L C R, Side: L R, LFE
Sampling rate : 48.0 KHz
Bit depth : 16 bits
Compression mode : Lossy
Stream size : 122 MiB (17%)