Conan.The.Barbarian.2011.BRRip.XviD.AC3.CrEwSaDe



IMDB :
http://www.imdb.com/title/tt0816462/



Synopsis:
The tale of Conan the Cimmerian and his adventures across the continent of Hyboria on a quest to avenge the murder of his father and the slaughter of his village.
Wupload :
http://www.wupload.com/file/19878773...3.CrEwSaDe.rar

Fileserve :
http://www.fileserve.com/file/f89GTf...3.CrEwSaDe.rar

Filejungle :
http://www.filejungle.com/f/dWKwpk/C...3.CrEwSaDe.rar

Filesonic :
http://www.filesonic.com/file/314949...3.CrEwSaDe.rar

PLEASE REPLY IF YOU LIKE MY POST!

SCREENSHOT :


NFO :
General
Complete name : Conan.The.Barbarian.2011.BRRip.XviD.AC3.CrEwSaDe.avi
Format : AVI
Format/Info : Audio Video Interleave
File size : 698 MiB
Duration : 1h 52mn
Overall bit rate : 866 Kbps

Video
ID : 0
Format : MPEG-4 Visual
Format profile : Advanced [email protected]
Format settings, BVOP : 2
Format settings, QPel : No
Format settings, GMC : No warppoints
Format settings, Matrix : Default (H.263)
Codec ID : XVID
Codec ID/Hint : XviD
Duration : 1h 52mn
Bit rate : 730 Kbps
Width : 720 pixels
Height : 304 pixels
Display aspect ratio : 2.35:1
Frame rate : 23.976 fps
Color space : YUV
Chroma subsampling : 4:2:0
Bit depth : 8 bits
Scan type : Progressive
Compression mode : Lossy
Bits/(Pixel*Frame) : 0.139
Stream size : 589 MiB (84%)
Writing library : XviD 1.2.1 (UTC 2008-12-04)

Audio
ID : 1
Format : AC-3
Format/Info : Audio Coding 3
Mode extension : CM (complete main)
Codec ID : 2000
Duration : 1h 52mn
Bit rate mode : Constant
Bit rate : 128 Kbps
Channel(s) : 6 channels
Channel positions : Front: L C R, Side: L R, LFE
Sampling rate : 48.0 KHz
Bit depth : 16 bits
Compression mode : Lossy
Stream size : 103 MiB (15%)
Alignment : Aligned on interleaves
Interleave, duration : 64 ms (1.53 video frames)
Interleave, preload duration : 192 ms
Title : Conan.The.Barbarian.2011.BluRay.1080p.DTS.x264-CHD - [2] English