The.Duel.2010.BRRip.XviD.Ac3.Feel-Free



IMDB :
http://www.imdb.com/title/tt1282041/



Synopsis:
THE DUEL gives life to a classic Chekhovian tale: the young ne’er-do-well aristocrat vs. the arrogant man of science; the attraction of a manipulative, narcissistic mistress vs. the life of the mind and of principled action. Gambling, alcohol and flirtations consummated in an impossibly beautiful countryside hold obvious attractions for Laevsky.
Wupload :
http://www.wupload.com/file/19757132...Free.part1.rar
http://www.wupload.com/file/19757110...Free.part2.rar

Fileserve :
http://www.fileserve.com/file/QDfufv...Free.part1.rar
http://www.fileserve.com/file/c4RPNB...Free.part2.rar

Filejungle :
http://www.filejungle.com/f/Kdtsz2/T...Free.part1.rar
http://www.filejungle.com/f/CAwuJv/T...Free.part2.rar

Filesonic :
http://www.filesonic.com/file/314949...Free.part1.rar
http://www.filesonic.com/file/314947...Free.part2.rar

PLEASE REPLY IF YOU LIKE MY POST!

SCREENSHOT :


NFO :
General
Complete name : The.Duel.2010.BRRip.XviD.Ac3.Feel-Free.avi
Format : AVI
Format/Info : Audio Video Interleave
File size : 1.19 GiB
Duration : 1h 34mn
Overall bit rate : 1 803 Kbps
Writing application : VirtualDubMod 1.5.10.2 (build 2540/release)
Writing library : VirtualDubMod build 2540/release

Video
ID : 0
Format : MPEG-4 Visual
Format profile : Advanced [email protected]
Format settings, BVOP : 1
Format settings, QPel : No
Format settings, GMC : No warppoints
Format settings, Matrix : Default (H.263)
Codec ID : XVID
Codec ID/Hint : XviD
Duration : 1h 34mn
Bit rate : 1 345 Kbps
Width : 640 pixels
Height : 360 pixels
Display aspect ratio : 16:9
Frame rate : 23.976 fps
Color space : YUV
Chroma subsampling : 4:2:0
Bit depth : 8 bits
Scan type : Progressive
Compression mode : Lossy
Bits/(Pixel*Frame) : 0.244
Stream size : 908 MiB (75%)
Writing library : XviD 1.2.1 (UTC 2008-12-04)

Audio
ID : 1
Format : AC-3
Format/Info : Audio Coding 3
Mode extension : CM (complete main)
Codec ID : 2000
Duration : 1h 34mn
Bit rate mode : Constant
Bit rate : 448 Kbps
Channel(s) : 6 channels
Channel positions : Front: L C R, Side: L R, LFE
Sampling rate : 48.0 KHz
Bit depth : 16 bits
Compression mode : Lossy
Stream size : 302 MiB (25%)
Alignment : Aligned on interleaves
Interleave, duration : 42 ms (1.00 video frame)
Interleave, preload duration : 512 ms