Conan.The.Barbarian.2011.BRRip.XvidHD.720p-NPW



IMDB :
http://www.imdb.com/title/tt0816462/



Synopsis:
The tale of Conan the Cimmerian and his adventures across the continent of Hyboria on a quest to avenge the murder of his father and the slaughter of his village.
Wupload :
http://www.wupload.com/file/19826188...-NPW.part1.rar
http://www.wupload.com/file/19826268...-NPW.part2.rar
http://www.wupload.com/file/19826256...-NPW.part3.rar
http://www.wupload.com/file/19826264...-NPW.part4.rar
http://www.wupload.com/file/19826331...-NPW.part5.rar

Fileserve :
http://www.fileserve.com/file/ceAnET...-NPW.part1.rar
http://www.fileserve.com/file/WzBcJ2...-NPW.part2.rar
http://www.fileserve.com/file/FdPmDz...-NPW.part3.rar
http://www.fileserve.com/file/JbrXVf...-NPW.part4.rar
http://www.fileserve.com/file/x2DBgE...-NPW.part5.rar

Filejungle :
http://www.filejungle.com/f/gaD3hF/C...-NPW.part1.rar
http://www.filejungle.com/f/Dn8Kaq/C...-NPW.part2.rar
http://www.filejungle.com/f/wPEtEK/C...-NPW.part3.rar
http://www.filejungle.com/f/9CXpmy/C...-NPW.part4.rar
http://www.filejungle.com/f/qQSMRZ/C...-NPW.part5.rar

Filesonic :
http://www.filesonic.com/file/314964...-NPW.part1.rar
http://www.filesonic.com/file/314964...-NPW.part2.rar
http://www.filesonic.com/file/314954...-NPW.part3.rar
http://www.filesonic.com/file/314950...-NPW.part4.rar
http://www.filesonic.com/file/314950...-NPW.part5.rar

PLEASE REPLY IF YOU LIKE MY POST!

SCREENSHOT :


NFO :
General
Complete name : Conan.The.Barbarian.2011.BRRip.XvidHD.720p-NPW.avi
Format : AVI
Format/Info : Audio Video Interleave
Format profile : OpenDML
File size : 3.19 GiB
Duration : 1h 52mn
Overall bit rate : 4 049 Kbps
Writing application : VirtualDubMod 1.5.10.2 (build 2540/release)
Writing library : VirtualDubMod build 2540/release

Video
ID : 0
Format : MPEG-4 Visual
Format profile : Advanced [email protected]
Format settings, BVOP : 1
Format settings, QPel : No
Format settings, GMC : No warppoints
Format settings, Matrix : Default (H.263)
Codec ID : XVID
Codec ID/Hint : XviD
Duration : 1h 52mn
Bit rate : 3 399 Kbps
Width : 1 280 pixels
Height : 536 pixels
Display aspect ratio : 2.40:1
Frame rate : 23.976 fps
Color space : YUV
Chroma subsampling : 4:2:0
Bit depth : 8 bits
Scan type : Progressive
Compression mode : Lossy
Bits/(Pixel*Frame) : 0.207
Stream size : 2.68 GiB (84%)
Writing library : XviD 1.2.1 (UTC 2008-12-04)

Audio
ID : 1
Format : AC-3
Format/Info : Audio Coding 3
Mode extension : CM (complete main)
Codec ID : 2000
Duration : 1h 52mn
Bit rate mode : Constant
Bit rate : 640 Kbps
Channel(s) : 6 channels
Channel positions : Front: L C R, Side: L R, LFE
Sampling rate : 48.0 KHz
Bit depth : 16 bits
Compression mode : Lossy
Stream size : 516 MiB (16%)
Alignment : Aligned on interleaves
Interleave, duration : 42 ms (1.00 video frame)
Interleave, preload duration : 512 ms