Beethovens.Christmas.Adventure.2011.DVDRip.XViD-DTRG



IMDB :
http://www.imdb.com/title/tt1855134/



Synopsis:
A Christmas elf accidentally takes off in Santa's sleigh, crash lands in a small town, and loses the magic toy bag. Beethoven must rescue the elf, recover the bag from greedy crooks, and return the sleigh to Santa in time to save Christmas.
Wupload :
http://www.wupload.com/file/19757110...DTRG.part1.rar
http://www.wupload.com/file/19757128...DTRG.part2.rar
http://www.wupload.com/file/19817684...DTRG.part3.rar

Fileserve :
http://www.fileserve.com/file/ZXPXVX...DTRG.part1.rar
http://www.fileserve.com/file/9uqc2u...DTRG.part2.rar
http://www.fileserve.com/file/kYeyQ9...DTRG.part3.rar

Filejungle :
http://www.filejungle.com/f/d7NV5p/B...DTRG.part1.rar
http://www.filejungle.com/f/D3G5nQ/B...DTRG.part2.rar
http://www.filejungle.com/f/rTpRds/B...DTRG.part3.rar

Filesonic :
http://www.filesonic.com/file/314962...DTRG.part1.rar
http://www.filesonic.com/file/314949...DTRG.part2.rar
http://www.filesonic.com/file/314949...DTRG.part3.rar

PLEASE REPLY IF YOU LIKE MY POST!

SCREENSHOT :


NFO :
Format : AVI
Format/Info : Audio Video Interleave
File size : 1.41 GiB
Duration : 1h 25mn
Overall bit rate : 2 345 Kbps
Writing application : VirtualDubMod 1.5.10.2 (build 2540/release)
Writing library : VirtualDubMod build 2540/release

Video
ID : 0
Format : MPEG-4 Visual
Format profile : Advanced [email protected]
Format settings, BVOP : 2
Format settings, QPel : No
Format settings, GMC : No warppoints
Format settings, Matrix : Default (H.263)
Muxing mode : Packed bitstream
Codec ID : XVID
Codec ID/Hint : XviD
Duration : 1h 25mn
Bit rate : 2 109 Kbps
Width : 720 pixels
Height : 400 pixels
Display aspect ratio : 16:9
Frame rate : 29.970 fps
Color space : YUV
Chroma subsampling : 4:2:0
Bit depth : 8 bits
Scan type : Progressive
Compression mode : Lossy
Bits/(Pixel*Frame) : 0.244
Stream size : 1.27 GiB (90%)
Writing library : XviD 64

Audio
ID : 1
Format : AC-3
Format/Info : Audio Coding 3
Mode extension : CM (complete main)
Codec ID : 2000
Duration : 1h 25mn
Bit rate mode : Constant
Bit rate : 224 Kbps
Channel(s) : 2 channels
Channel positions : Front: L R
Sampling rate : 48.0 KHz
Bit depth : 16 bits
Compression mode : Lossy
Stream size : 138 MiB (10%)
Alignment : Split accross interleaves
Interleave, duration : 33 ms (1.00 video frame)
Interleave, preload duration : 500 ms









http://www.imdb.com/title/tt1855134/



A Christmas elf accidentally takes off in Santa's sleigh, crash lands in a small town, and loses the magic toy bag. Beethoven must rescue the elf, recover the bag from greedy crooks, and return the sleigh to Santa in time to save Christmas.
Director:
John Putch
Writers:
Daniel Altiere, Steven Altiere
Stars:
John Cleese, Curtis Armstrong and John Kassir