Cat Run 2011 BRRip XViD-NiTRO

iNFo:
#
Cat.Run.2011.BRRip.XviD-NiTRO
#
Source: own
#
Cat Run (2011) - IMDb
#

#
General
#
Complete name : D:\Cat.Run.2011.BRRip.XviD-NiTRO\Cat.Run.2011.BRRip.XviD-NiTRO.avi
#
Format : AVI
#
Format/Info : Audio Video Interleave
#
Format profile : OpenDML
#
File size : 1.47 GiB
#
Duration : 1h 44mn
#
Overall bit rate : 2 008 Kbps
#
Writing application : Lavf51.12.1
#

#
Video
#
ID : 0
#
Format : AVC
#
Format/Info : Advanced Video Codec
#
Format profile : [email protected]
#
Format settings, CABAC : No
#
Format settings, ReFrames : 1 frame
#
Format settings, GOP : M=1, N=12
#
Codec ID : H264
#
Duration : 1h 44mn
#
Bit rate : 1 674 Kbps
#
Width : 720 pixels
#
Height : 304 pixels
#
Display aspect ratio : 2.35:1
#
Frame rate : 23.976 fps
#
Color space : YUV
#
Chroma subsampling : 4:2:0
#
Bit depth : 8 bits
#
Scan type : Progressive
#
Bits/(Pixel*Frame) : 0.319
#
Stream size : 1.23 GiB (83%)
#

#
Audio
#
ID : 1
#
Format : MPEG Audio
#
Format version : Version 1
#
Format profile : Layer 3
#
Mode : Joint stereo
#
Mode extension : MS Stereo
#
Codec ID : 55
#
Codec ID/Hint : MP3
#
Duration : 1h 44mn
#
Bit rate mode : Constant
#
Bit rate : 320 Kbps
#
Channel(s) : 2 channels
#
Sampling rate : 44.1 KHz
#
Compression mode : Lossy
#
Stream size : 77.6 MiB (5%)
#
Alignment : Aligned on interleaves
#
Interleave, duration : 81 ms (1.94 video frames)
#
Interleave, preload duration : 26 ms
#
Writing library : LAME3.97


1-LINK:
Download Cat.Run.2011.BRRip.XViD-NiTRO.avi for free on Filesonic.com
Or
Get Cat.Run.2011.BRRip.XViD-NiTRO.avi on Wupload.com
Or
Download Cat.Run.2011.BRRip.XviD-NiTRO.rar for free on Filesonic.com
Or
Free File Hosting, Online Storage &amp File Upload with FileServe

450mb-iNTERCHANGEABLE:
Download Cat.Run.2011.BRRip.XviD-NiTRO.avi.part1.rar for free on Filesonic.com
Download Cat.Run.2011.BRRip.XviD-NiTRO.avi.part2.rar for free on Filesonic.com
Download Cat.Run.2011.BRRip.XviD-NiTRO.avi.part3.rar for free on Filesonic.com
Download Cat.Run.2011.BRRip.XviD-NiTRO.avi.part4.rar for free on Filesonic.com
Or
Get Cat.Run.2011.BRRip.XviD-NiTRO.avi.part1.rar on Wupload.com
Get Cat.Run.2011.BRRip.XviD-NiTRO.avi.part2.rar on Wupload.com
Get Cat.Run.2011.BRRip.XviD-NiTRO.avi.part3.rar on Wupload.com
Get Cat.Run.2011.BRRip.XviD-NiTRO.avi.part4.rar on Wupload.com
Or
Free File Hosting, Online Storage &amp File Upload with FileServe
Free File Hosting, Online Storage &amp File Upload with FileServe
Free File Hosting, Online Storage &amp File Upload with FileServe
Free File Hosting, Online Storage &amp File Upload with FileServe
Please-Say-Thanks-To-Keep-The-Topic-Alive.