Swamp.Shark.2011.BluRay.720p.x264.DTS.HDChina



IMDB :
Swamp Shark (TV 2011) - IMDb



Synopsis:
Open on gorgeous swamplands of the Atchafalaya Basin in the summer. Lots of beautiful teens are at the beach the weekend before Gator Fest. That night an animal smuggling deal goes wrong and a large sea creature escapes into a swampy backwoods river. At the McDaniel’s “Gator Shack” restaurant, a local, Jackson is drunk, and gets mangled to bits. The town sheriff blames the carnage on the McDaniel’s “escaped” pack of gators and tries hauling them off to jail. Rachel McDaniel, head of the family, claims to have seen the fin of a shark! Rachel and her family, along with the help of a mysterious stranger, Charlie, take on the Swampshark and the law to clear their names, save Rachel’s kid sister Krystal and prevent the unwitting folks at the upcoming Gator Fest from being torn to shreds by a beast the likes of which no one has ever seen.
Wupload :
Get Swamp.Shark.2011.BluRay.720p.x264.DTS.HDChina.part01.rar on Wupload.com
Get Swamp.Shark.2011.BluRay.720p.x264.DTS.HDChina.part02.rar on Wupload.com
Get Swamp.Shark.2011.BluRay.720p.x264.DTS.HDChina.part03.rar on Wupload.com
Get Swamp.Shark.2011.BluRay.720p.x264.DTS.HDChina.part04.rar on Wupload.com
Get Swamp.Shark.2011.BluRay.720p.x264.DTS.HDChina.part05.rar on Wupload.com
Get Swamp.Shark.2011.BluRay.720p.x264.DTS.HDChina.part06.rar on Wupload.com
Get Swamp.Shark.2011.BluRay.720p.x264.DTS.HDChina.part07.rar on Wupload.com
Get Swamp.Shark.2011.BluRay.720p.x264.DTS.HDChina.part08.rar on Wupload.com
Get Swamp.Shark.2011.BluRay.720p.x264.DTS.HDChina.part09.rar on Wupload.com
Get Swamp.Shark.2011.BluRay.720p.x264.DTS.HDChina.part10.rar on Wupload.com

Fileserve :
Free File Hosting, Online Storage &amp File Upload with FileServe
Free File Hosting, Online Storage &amp File Upload with FileServe
Free File Hosting, Online Storage &amp File Upload with FileServe
Free File Hosting, Online Storage &amp File Upload with FileServe
Free File Hosting, Online Storage &amp File Upload with FileServe
Free File Hosting, Online Storage &amp File Upload with FileServe
Free File Hosting, Online Storage &amp File Upload with FileServe
Free File Hosting, Online Storage &amp File Upload with FileServe
Free File Hosting, Online Storage &amp File Upload with FileServe
Free File Hosting, Online Storage &amp File Upload with FileServe

Filejungle :
Filejungle.com - #1 Hosting for Easy & Fast File Storage
Filejungle.com - #1 Hosting for Easy & Fast File Storage
Filejungle.com - #1 Hosting for Easy & Fast File Storage
Filejungle.com - #1 Hosting for Easy & Fast File Storage
Filejungle.com - #1 Hosting for Easy & Fast File Storage
Filejungle.com - #1 Hosting for Easy & Fast File Storage
Filejungle.com - #1 Hosting for Easy & Fast File Storage
Filejungle.com - #1 Hosting for Easy & Fast File Storage
Filejungle.com - #1 Hosting for Easy & Fast File Storage
Filejungle.com - #1 Hosting for Easy & Fast File Storage

Filesonic :
Download Swamp.Shark.2011.BluRay.720p.x264.DTS.HDChina.part01.rar for free on Filesonic.com
Download Swamp.Shark.2011.BluRay.720p.x264.DTS.HDChina.part02.rar for free on Filesonic.com
Download Swamp.Shark.2011.BluRay.720p.x264.DTS.HDChina.part03.rar for free on Filesonic.com
Download Swamp.Shark.2011.BluRay.720p.x264.DTS.HDChina.part04.rar for free on Filesonic.com
Download Swamp.Shark.2011.BluRay.720p.x264.DTS.HDChina.part05.rar for free on Filesonic.com
Download Swamp.Shark.2011.BluRay.720p.x264.DTS.HDChina.part06.rar for free on Filesonic.com
Download Swamp.Shark.2011.BluRay.720p.x264.DTS.HDChina.part07.rar for free on Filesonic.com
Download Swamp.Shark.2011.BluRay.720p.x264.DTS.HDChina.part08.rar for free on Filesonic.com
Download Swamp.Shark.2011.BluRay.720p.x264.DTS.HDChina.part09.rar for free on Filesonic.com
Download Swamp.Shark.2011.BluRay.720p.x264.DTS.HDChina.part10.rar for free on Filesonic.com

PLEASE REPLY IF YOU LIKE MY POST!

SCREENSHOT :


NFO :
General
Unique ID : 205162169325892408261251367901516573818 (0x9A58CBE9C8D3AACCAC64276289C8AC7A)
Complete name : Swamp.Shark.2011.BluRay.720p.x264.DTS.HDChina.mkv
Format : Matroska
File size : 6.55 GiB
Duration : 1h 28mn
Overall bit rate : 10.6 Mbps
Encoded date : UTC 2011-11-05 11:07:40
Writing application : mkvmerge v4.0.0 ('The Stars were mine') built on Jun 6 2010 16:18:42
Writing library : libebml v1.0.0 + libmatroska v1.0.0

Video
ID : 1
Format : AVC
Format/Info : Advanced Video Codec
Format profile : [email protected]
Format settings, CABAC : Yes
Format settings, ReFrames : 9 frames
Codec ID : V_MPEG4/ISO/AVC
Duration : 1h 28mn
Bit rate : 9 797 Kbps
Width : 1 278 pixels
Height : 720 pixels
Display aspect ratio : 16:9
Frame rate : 23.976 fps
Color space : YUV
Chroma subsampling : 4:2:0
Bit depth : 8 bits
Scan type : Progressive
Bits/(Pixel*Frame) : 0.444
Stream size : 5.96 GiB (91%)
Writing library : x264 core 116 r2074 2641b9e
Encoding settings : cabac=1 / ref=9 / deblock=1:-3:-3 / analyse=0x3:0x133 / me=umh / subme=10 / psy=1 / psy_rd=1.00:0.10 / mixed_ref=1 / me_range=48 / chroma_me=1 / trellis=2 / 8x8dct=1 / cqm=0 / deadzone=21,11 / fast_pskip=0 / chroma_qp_offset=-3 / threads=12 / sliced_threads=0 / nr=0 / decimate=0 / interlaced=0 / bluray_compat=0 / constrained_intra=0 / bframes=6 / b_pyramid=2 / b_adapt=2 / b_bias=0 / direct=3 / weightb=1 / open_gop=0 / weightp=2 / keyint=360 / keyint_min=2 / scenecut=40 / intra_refresh=0 / rc_lookahead=60 / rc=2pass / mbtree=1 / bitrate=9797 / ratetol=1.0 / qcomp=0.70 / qpmin=0 / qpmax=69 / qpstep=4 / cplxblur=20.0 / qblur=0.5 / vbv_maxrate=50000 / vbv_bufsize=30000 / nal_hrd=none / ip_ratio=1.40 / aq=2:1.00

Audio
ID : 2
Format : DTS
Format/Info : Digital Theater Systems
Codec ID : A_DTS
Duration : 1h 28mn
Bit rate mode : Constant
Bit rate : 754 Kbps
Channel(s) : 6 channels
Channel positions : Front: L C R, Side: L R, LFE
Sampling rate : 48.0 KHz
Bit depth : 16 bits
Compression mode : Lossy
Stream size : 480 MiB (7%)
Language : English