TITLE



IMDB :
Spring 1941 (2008) - IMDb



Synopsis:
Successful doctor Artur Planck, his wife Clara and their two daughters are seeking shelter from the Nazis storming Poland. They find a safe house in the farm of Emilia, their local grocer who is all alone after her husband fought for his country and never returned. Amidst the horrors of the war that surrounds them, an impossible love triangle erupts as Emelia uncontrollably falls in love with Artur. Such a fragile arrangement is sustained by love – or is it just the will to survive? The answer to that question may not even be made known to those who make it out alive.
Wupload :
Get spring1941-spk.part1.rar on Wupload.com
Get spring1941-spk.part2.rar on Wupload.com

Fileserve :
Free File Hosting, Online Storage &amp File Upload with FileServe
Free File Hosting, Online Storage &amp File Upload with FileServe

Filejungle :
Filejungle.com - #1 Hosting for Easy & Fast File Storage
Filejungle.com - #1 Hosting for Easy & Fast File Storage

Filesonic :
Download spring1941-spk.part1.rar for free on Filesonic.com
Download spring1941-spk.part2.rar for free on Filesonic.com

PLEASE REPLY IF YOU LIKE MY POST!

SCREENSHOT :


NFO :
General
Complete name : spring1941-spk.avi
Format : AVI
Format/Info : Audio Video Interleave
File size : 1.37 GiB
Duration : 1h 36mn
Overall bit rate : 2 038 Kbps
Writing application : VirtualDubMod 1.5.10.2 (build 2540/release)
Writing library : VirtualDubMod build 2540/release

Video
ID : 0
Format : MPEG-4 Visual
Format profile : Advanced [email protected]
Format settings, BVOP : 2
Format settings, QPel : No
Format settings, GMC : No warppoints
Format settings, Matrix : Default (MPEG)
Muxing mode : Packed bitstream
Codec ID : XVID
Codec ID/Hint : XviD
Duration : 1h 36mn
Bit rate : 1 645 Kbps
Width : 700 pixels
Height : 378 pixels
Display aspect ratio : 1.852
Frame rate : 25.000 fps
Color space : YUV
Chroma subsampling : 4:2:0
Bit depth : 8 bits
Scan type : Progressive
Compression mode : Lossy
Bits/(Pixel*Frame) : 0.249
Stream size : 1.10 GiB (81%)
Writing library : XviD 64

Audio
ID : 1
Format : AC-3
Format/Info : Audio Coding 3
Mode extension : CM (complete main)
Codec ID : 2000
Duration : 1h 36mn
Bit rate mode : Constant
Bit rate : 384 Kbps
Channel(s) : 2 channels
Channel positions : Front: L R
Sampling rate : 48.0 KHz
Bit depth : 16 bits
Compression mode : Lossy
Stream size : 264 MiB (19%)
Alignment : Split accross interleaves
Interleave, duration : 40 ms (1.00 video frame)
Interleave, preload duration : 500 ms